<?xml version="1.0" standalone="no"?>
<!DOCTYPE svg PUBLIC "-//W3C//DTD SVG 1.1//EN" "http://www.w3.org/Graphics/SVG/1.1/DTD/svg11.dtd" >
<svg>
<metadata>
Created by FontForge 20090914 at Tue Apr 16 20:54:14 2019
 By www-data
ProFont Distribution 2.2  Generated by Fontographer 4.1.5, edited by FontForge. Experimental Version IIx.
</metadata>
<defs>
<font id="ProFontIIx" horiz-adv-x="600" >
  <font-face 
    font-family="ProFontIIx"
    font-weight="400"
    font-stretch="normal"
    units-per-em="900"
    panose-1="0 0 4 0 0 0 0 0 0 0"
    ascent="720"
    descent="-180"
    x-height="500"
    cap-height="700"
    bbox="-0.00195312 -200 605.001 910"
    underline-thickness="50"
    underline-position="-75"
    unicode-range="U+000C-U+FB02"
  />
<missing-glyph horiz-adv-x="450" 
d="M56 0v700h338v-700h-338zM113 56h225v588h-225v-588z" />
    <glyph glyph-name="fi" unicode="fi" 
d="M605 0h-300v100h100v300h-200v-400h-100v400h-100v100h100c0 55.333 19.5 102.5 58.5 141.5s86.167 58.5 141.5 58.5h100v-100h-100c-27.333 0 -50.833 -9.83301 -70.5 -29.5s-29.5 -43.167 -29.5 -70.5h300v-400h100v-100z" />
    <glyph glyph-name="fl" unicode="fl" 
d="M605 0h-300v100h100v500h-100c-27.333 0 -50.833 -9.83301 -70.5 -29.5s-29.5 -43.167 -29.5 -70.5h100v-100h-100v-400h-100v400h-100v100h100c0 55.333 19.5 102.5 58.5 141.5s86.167 58.5 141.5 58.5h200v-600h100v-100z" />
    <glyph glyph-name=".notdef" horiz-adv-x="450" 
d="M56 0v700h338v-700h-338zM113 56h225v588h-225v-588z" />
    <glyph glyph-name=".null" horiz-adv-x="0" 
 />
    <glyph glyph-name=".null" horiz-adv-x="0" 
 />
    <glyph glyph-name="nonmarkingreturn" 
 />
    <glyph glyph-name="uni0011" horiz-adv-x="667" 
 />
    <glyph glyph-name="uni0012" horiz-adv-x="667" 
 />
    <glyph glyph-name="uni0013" horiz-adv-x="667" 
 />
    <glyph glyph-name="uni0014" horiz-adv-x="667" 
 />
    <glyph glyph-name="space" unicode=" " 
 />
    <glyph glyph-name="exclam" unicode="!" 
d="M300 200h-100v500h100v-500zM300 50c0 -14 -4.83301 -25.833 -14.5 -35.5s-21.5 -14.5 -35.5 -14.5s-25.833 4.83301 -35.5 14.5s-14.5 21.5 -14.5 35.5s4.83301 25.833 14.5 35.5s21.5 14.5 35.5 14.5s25.833 -4.83301 35.5 -14.5s14.5 -21.5 14.5 -35.5z" />
    <glyph glyph-name="quotedbl" unicode="&#x22;" 
d="M400 500h-100v300h100v-300zM200 500h-100v300h100v-300z" />
    <glyph glyph-name="numbersign" unicode="#" 
d="M500 300h-100v-100h-100v100h-100v-100h-100v100h-100v100h100v100h-100v100h100v100h100v-100h100v100h100v-100h100v-100h-100v-100h100v-100zM300 400v100h-100v-100h100z" />
    <glyph glyph-name="dollar" unicode="$" 
d="M500 200c0 -55.333 -19.5 -102.5 -58.5 -141.5s-86.167 -58.5 -141.5 -58.5v-100h-100v100c-55.333 0 -102.5 19.5 -141.5 58.5s-58.5 86.167 -58.5 141.5h100c0 -27.333 9.83301 -50.833 29.5 -70.5s43.167 -29.5 70.5 -29.5v200c-55.333 0 -102.5 19.5 -141.5 58.5
s-58.5 86.167 -58.5 141.5s19.5 102.5 58.5 141.5s86.167 58.5 141.5 58.5v100h100v-100c55.333 0 102.5 -19.667 141.5 -59s58.5 -86.333 58.5 -141h-100c0 27.333 -9.83301 50.833 -29.5 70.5s-43.167 29.5 -70.5 29.5v-200c54.667 0 101.667 -19.667 141 -59
s59 -86.333 59 -141zM200 400v200c-27.333 0 -50.833 -9.83301 -70.5 -29.5s-29.5 -43.167 -29.5 -70.5s9.83301 -50.833 29.5 -70.5s43.167 -29.5 70.5 -29.5zM400 200c0 27.333 -9.83301 50.833 -29.5 70.5s-43.167 29.5 -70.5 29.5v-200
c27.333 0 50.833 9.83301 70.5 29.5s29.5 43.167 29.5 70.5z" />
    <glyph glyph-name="percent" unicode="%" 
d="M500 200c0 -55.333 -14.668 -102.499 -44.001 -141.499s-64.666 -58.5 -105.999 -58.5s-76.666 19.5 -105.999 58.5s-44 86.167 -44 141.5c0 7.33301 0.666992 17.666 2 30.999l-102 -102v-129h-100v171l131 131c-40.667 8.66699 -72.667 31.667 -96 69
c-23.333 35.333 -35 78.333 -35 129c0 55.333 14.667 102.5 44 141.5s64.666 58.5 105.999 58.5h350v-171l-130 -130c38 -8 69.167 -30.833 93.5 -68.5s36.5 -81.167 36.5 -130.5zM399.999 571.001v29h-121c14 -32 21 -65.333 21 -100c0 -14 -0.333008 -24 -1 -30z
M199.999 500.001c0 27.333 -4.83301 50.833 -14.5 70.5s-21.5 29.5 -35.5 29.5s-25.833 -9.83301 -35.5 -29.5s-14.5 -43.167 -14.5 -70.5s4.83301 -50.833 14.5 -70.5s21.5 -29.5 35.5 -29.5s25.833 9.83301 35.5 29.5s14.5 43.167 14.5 70.5zM399.999 200.001
c0 27.333 -4.83301 50.833 -14.5 70.5s-21.5 29.5 -35.5 29.5s-25.833 -9.83301 -35.5 -29.5s-14.5 -43.167 -14.5 -70.5s4.83301 -50.833 14.5 -70.5s21.5 -29.5 35.5 -29.5s25.833 9.83301 35.5 29.5s14.5 43.167 14.5 70.5z" />
    <glyph glyph-name="ampersand" unicode="&#x26;" 
d="M522 253l-102 -103.001l96 -97l-69 -69l-97 97l-58 -59c-28 -14.667 -58.667 -22 -92 -22c-55.333 0 -102.5 19.5 -141.5 58.5s-58.5 86.167 -58.5 141.5c-0 33.333 7.33301 64 22 92l58 57l-58 59c-14.667 28 -22 58.667 -22 92c0 55.333 19.5 102.5 58.5 141.5
s86.167 58.5 141.5 58.5h62c38 0 70.5 -13.5 97.5 -40.5s40.5 -59.167 40.5 -96.5c0 -19.333 -2.66699 -32.666 -8 -39.999l-172 -173l130 -131l103 103zM299 566.999c0.666992 2.66699 1 5.33301 1 8c0 16.667 -8.33301 25 -25 25h-75
c-27.333 0 -50.833 -9.83301 -70.5 -29.5s-29.5 -43.167 -29.5 -70.5c0 -14.667 2.33301 -27 7 -37l44 -44zM281 149.998l-131 130l-43 -43c-4.66699 -10 -7 -22.333 -7 -37c0 -27.333 9.83301 -50.833 29.5 -70.5s43.167 -29.5 70.5 -29.5c14.667 0 27 2.33301 37 7z" />
    <glyph glyph-name="quotesingle" unicode="'" 
d="M300 500h-100v300h100v-300z" />
    <glyph glyph-name="parenleft" unicode="(" 
d="M419 -50l-69 -69l-250 250v438l250 250l69 -69l-219 -219v-362z" />
    <glyph glyph-name="parenright" unicode=")" 
d="M400 131l-250 -250l-69 69l219 219v362l-219 219l69 69l250 -250v-438z" />
    <glyph glyph-name="asterisk" unicode="*" 
d="M493 373l-49 -88l-144 79v-164h-100v164l-142 -82l-50 86l142 82l-143 77l49 88l144 -80v165h100v-163l141 81l50 -86l-141 -82z" />
    <glyph glyph-name="plus" unicode="+" 
d="M500 300h-200v-200h-100v200h-200v100h200v200h100v-200h200v-100z" />
    <glyph glyph-name="comma" unicode="," 
d="M350 -44l-156 -156l-69 69l125 125v31c-27.333 0 -50.833 9.83301 -70.5 29.5s-29.5 43.167 -29.5 70.5s9.83301 50.833 29.5 70.5s43.167 29.5 70.5 29.5s50.833 -9.83301 70.5 -29.5s29.5 -43.167 29.5 -70.5v-169z" />
    <glyph glyph-name="hyphen" unicode="-" 
d="M500 300h-500v100h500v-100z" />
    <glyph glyph-name="hyphen" unicode="&#x2010;" 
d="M500 300h-500v100h500v-100z" />
    <glyph glyph-name="period" unicode="." 
d="M346 125c0 -28 -9.16699 -51.667 -27.5 -71s-41.166 -29 -68.499 -29s-50.833 9.83301 -70.5 29.5s-29.5 43.167 -29.5 70.5s9.83301 50.833 29.5 70.5s43.167 29.5 70.5 29.5s50.166 -9.66699 68.499 -29s27.5 -43 27.5 -71z" />
    <glyph glyph-name="slash" unicode="/" 
d="M571 754l-482 -945l-89 45l482 946z" />
    <glyph glyph-name="zero" unicode="0" 
d="M500 200c0 -55.333 -19.5 -102.5 -58.5 -141.5s-86.167 -58.5 -141.5 -58.5h-100c-55.333 0 -102.5 19.5 -141.5 58.5s-58.5 86.167 -58.5 141.5v300c0 55.333 19.5 102.5 58.5 141.5s86.167 58.5 141.5 58.5h100c55.333 0 102.5 -19.667 141.5 -59
s58.5 -86.333 58.5 -141v-300zM385 554c-20 30.667 -48.333 46 -85 46h-100c-27.333 0 -50.833 -9.83301 -70.5 -29.5s-29.5 -43.167 -29.5 -70.5v-231zM400 200v229l-283 -283c20 -30.667 47.667 -46 83 -46h100c27.333 0 50.833 9.83301 70.5 29.5s29.5 43.167 29.5 70.5z
" />
    <glyph glyph-name="one" unicode="1" 
d="M500 0h-500v100h200v400h-150v100h50c27.333 0 50.833 9.83301 70.5 29.5s29.5 43.167 29.5 70.5h100v-600h200v-100z" />
    <glyph glyph-name="two" unicode="2" 
d="M500 0h-500v69l393 394c4.66699 10 7 22.333 7 37c0 27.333 -9.83301 50.833 -29.5 70.5s-43.167 29.5 -70.5 29.5h-100c-27.333 0 -50.833 -9.83301 -70.5 -29.5s-29.5 -43.167 -29.5 -70.5h-100c0 55.333 19.5 102.5 58.5 141.5s86.167 58.5 141.5 58.5h100
c55.333 0 102.5 -19.667 141.5 -59s58.5 -86.333 58.5 -141c0 -33.333 -7.33301 -64 -22 -92l-309 -308h331v-100z" />
    <glyph glyph-name="three" unicode="3" 
d="M100 200c0 -27.333 9.83301 -50.833 29.5 -70.5s43.167 -29.5 70.5 -29.5h100c27.333 0 50.833 9.83301 70.5 29.5s29.5 43.167 29.5 70.5s-9.83301 50.833 -29.5 70.5s-43.167 29.5 -70.5 29.5h-100v100h100c27.333 0 50.833 9.83301 70.5 29.5s29.5 43.167 29.5 70.5
s-9.83301 50.833 -29.5 70.5s-43.167 29.5 -70.5 29.5h-100c-27.333 0 -50.833 -9.83301 -70.5 -29.5s-29.5 -43.167 -29.5 -70.5h-100c0 55.333 19.5 102.5 58.5 141.5s86.167 58.5 141.5 58.5h100c55.333 0 102.5 -19.5 141.5 -58.5s58.5 -86.167 58.5 -141.5
c0 -60 -28.333 -110 -85 -150c56.667 -40 85 -90 85 -150c0 -55.333 -19.5 -102.5 -58.5 -141.5s-86.167 -58.5 -141.5 -58.5h-100c-55.333 0 -102.5 19.5 -141.5 58.5s-58.5 86.167 -58.5 141.5h100z" />
    <glyph glyph-name="four" unicode="4" 
d="M500 0h-300v100h100v100h-300v169l331 331h69v-400h100v-100h-100v-100h100v-100zM300 300v231l-200 -200v-31h200z" />
    <glyph glyph-name="five" unicode="5" 
d="M500 200c0 -55.333 -19.5 -102.5 -58.5 -141.5s-86.167 -58.5 -141.5 -58.5h-100c-55.333 0 -102.5 19.5 -141.5 58.5s-58.5 86.167 -58.5 141.5h100c0 -27.333 9.83301 -50.833 29.5 -70.5s43.167 -29.5 70.5 -29.5h100c27.333 0 50.833 9.83301 70.5 29.5
s29.5 43.167 29.5 70.5v100c0 27.333 -9.83301 50.833 -29.5 70.5s-43.167 29.5 -70.5 29.5h-300v300h500v-100h-400v-100h200c54.667 0 101.667 -19.667 141 -59s59 -86.333 59 -141v-100z" />
    <glyph glyph-name="six" unicode="6" 
d="M500 200c0 -55.333 -19.5 -102.5 -58.5 -141.5s-86.167 -58.5 -141.5 -58.5h-100c-55.333 0 -102.5 19.5 -141.5 58.5s-58.5 86.167 -58.5 141.5v300c0 55.333 19.5 102.5 58.5 141.5s86.167 58.5 141.5 58.5h200v-100h-200c-27.333 0 -50.833 -9.83301 -70.5 -29.5
s-29.5 -43.167 -29.5 -70.5h200c54.667 0 101.667 -19.667 141 -59s59 -86.333 59 -141v-100zM400 200v100c0 27.333 -9.83301 50.833 -29.5 70.5s-43.167 29.5 -70.5 29.5h-200v-200c0 -27.333 9.83301 -50.833 29.5 -70.5s43.167 -29.5 70.5 -29.5h100
c27.333 0 50.833 9.83301 70.5 29.5s29.5 43.167 29.5 70.5z" />
    <glyph glyph-name="seven" unicode="7" 
d="M500 431l-200 -200v-231h-100v269l200 200v131h-400v100h500v-269z" />
    <glyph glyph-name="eight" unicode="8" 
d="M300 700c55.333 0 102.5 -19.5 141.5 -58.5s58.5 -86.167 58.5 -141.5c0 -60 -28.333 -110 -85 -150c56.667 -40 85 -90 85 -150c0 -55.333 -19.5 -102.5 -58.5 -141.5s-86.167 -58.5 -141.5 -58.5h-100c-55.333 0 -102.5 19.5 -141.5 58.5s-58.5 86.167 -58.5 141.5
c-0 60 28.333 110 85 150c-56.667 40 -85 90 -85 150c0 55.333 19.5 102.5 58.5 141.5s86.167 58.5 141.5 58.5h100zM200 600c-28 0 -51.667 -9.83301 -71 -29.5s-29 -43.167 -29 -70.5s9.83301 -50.833 29.5 -70.5s43.167 -29.5 70.5 -29.5h100
c27.333 0 50.833 9.83301 70.5 29.5s29.5 43.167 29.5 70.5s-9.83301 50.833 -29.5 70.5s-43.167 29.5 -70.5 29.5h-100zM300 100c28 0 51.667 9.83301 71 29.5s29 43.167 29 70.5s-9.83301 50.833 -29.5 70.5s-43.167 29.5 -70.5 29.5h-100
c-27.333 0 -50.833 -9.83301 -70.5 -29.5s-29.5 -43.167 -29.5 -70.5s9.83301 -50.833 29.5 -70.5s43.167 -29.5 70.5 -29.5h100z" />
    <glyph glyph-name="nine" unicode="9" 
d="M500 200c0 -55.333 -19.5 -102.5 -58.5 -141.5s-86.167 -58.5 -141.5 -58.5h-200v100h200c27.333 0 50.833 9.83301 70.5 29.5s29.5 43.167 29.5 70.5h-200c-55.333 0 -102.5 19.5 -141.5 58.5s-58.5 86.167 -58.5 141.5v100c0 55.333 19.5 102.5 58.5 141.5
s86.167 58.5 141.5 58.5h100c55.333 0 102.5 -19.667 141.5 -59s58.5 -86.333 58.5 -141v-300zM400 300v200c0 27.333 -9.83301 50.833 -29.5 70.5s-43.167 29.5 -70.5 29.5h-100c-27.333 0 -50.833 -9.83301 -70.5 -29.5s-29.5 -43.167 -29.5 -70.5v-100
c0 -27.333 9.83301 -50.833 29.5 -70.5s43.167 -29.5 70.5 -29.5h200z" />
    <glyph glyph-name="colon" unicode=":" 
d="M350 425c0 -27.333 -9.83301 -50.833 -29.5 -70.5s-43.167 -29.5 -70.5 -29.5s-50.833 9.83301 -70.5 29.5s-29.5 43.167 -29.5 70.5s9.83301 50.833 29.5 70.5s43.167 29.5 70.5 29.5s50.833 -9.83301 70.5 -29.5s29.5 -43.167 29.5 -70.5zM350 125
c0 -27.333 -9.83301 -50.833 -29.5 -70.5s-43.167 -29.5 -70.5 -29.5s-50.833 9.83301 -70.5 29.5s-29.5 43.167 -29.5 70.5s9.83301 50.833 29.5 70.5s43.167 29.5 70.5 29.5s50.833 -9.83301 70.5 -29.5s29.5 -43.167 29.5 -70.5z" />
    <glyph glyph-name="semicolon" unicode=";" 
d="M350 425c0 -27.333 -9.83301 -50.833 -29.5 -70.5s-43.167 -29.5 -70.5 -29.5s-50.833 9.83301 -70.5 29.5s-29.5 43.167 -29.5 70.5s9.83301 50.833 29.5 70.5s43.167 29.5 70.5 29.5s50.833 -9.83301 70.5 -29.5s29.5 -43.167 29.5 -70.5zM350 -44l-156 -156l-69 69
l125 125v31c-27.333 0 -50.833 9.83301 -70.5 29.5s-29.5 43.167 -29.5 70.5s9.83301 50.833 29.5 70.5s43.167 29.5 70.5 29.5s50.833 -9.83301 70.5 -29.5s29.5 -43.167 29.5 -70.5v-169z" />
    <glyph glyph-name="less" unicode="&#x3c;" 
d="M525 44l-69 -69l-377 375l371 369l69 -69l-298 -300z" />
    <glyph glyph-name="equal" unicode="=" 
d="M500 400h-500v100h500v-100zM500 200h-500v100h500v-100z" />
    <glyph glyph-name="greater" unicode="&#x3e;" 
d="M521 350l-371 -369l-69 69l298 300l-304 306l69 69z" />
    <glyph glyph-name="question" unicode="?" 
d="M500 500c0 -33.333 -7.33301 -64 -22 -92l-209 -208h-69v69l193 194c4.66699 10 7 22.333 7 37c0 27.333 -9.83301 50.833 -29.5 70.5s-43.167 29.5 -70.5 29.5h-100c-27.333 0 -50.833 -9.83301 -70.5 -29.5s-29.5 -43.167 -29.5 -70.5h-100
c0 55.333 19.5 102.5 58.5 141.5s86.167 58.5 141.5 58.5h100c55.333 0 102.5 -19.667 141.5 -59s58.5 -86.333 58.5 -141zM300 50c0 -14 -4.83301 -25.833 -14.5 -35.5s-21.5 -14.5 -35.5 -14.5s-25.833 4.83301 -35.5 14.5s-14.5 21.5 -14.5 35.5
s4.83301 25.833 14.5 35.5s21.5 14.5 35.5 14.5s25.833 -4.83301 35.5 -14.5s14.5 -21.5 14.5 -35.5z" />
    <glyph glyph-name="at" unicode="@" 
d="M500 0h-300c-55.333 0 -102.5 19.5 -141.5 58.5s-58.5 86.167 -58.5 141.5v300c0 55.333 19.5 102.5 58.5 141.5s86.167 58.5 141.5 58.5h100c55.333 0 102.5 -19.667 141.5 -59s58.5 -86.333 58.5 -141v-200c0 -28 -9.83301 -51.667 -29.5 -71s-43.167 -29 -70.5 -29
h-100c-27.333 0 -50.833 10.167 -70.5 30.5s-29.5 43.5 -29.5 69.5v100c0 27.333 9.83301 50.833 29.5 70.5s43.167 29.5 70.5 29.5h100c0 27.333 -9.83301 50.833 -29.5 70.5s-43.167 29.5 -70.5 29.5h-100c-27.333 0 -50.833 -9.83301 -70.5 -29.5
s-29.5 -43.167 -29.5 -70.5v-300c0 -27.333 9.83301 -50.833 29.5 -70.5s43.167 -29.5 70.5 -29.5h300v-100zM400 325v50c0 16.667 -8.33301 25 -25 25h-50c-16.667 0 -25 -8.33301 -25 -25v-50c0 -16.667 8.33301 -25 25 -25h50c16.667 0 25 8.33301 25 25z" />
    <glyph glyph-name="A" unicode="A" 
d="M100 200v-200h-100v325l188 375h125l187 -375v-325h-100v200h-300zM250 600l-150 -300h300z" />
    <glyph glyph-name="B" unicode="B" 
d="M500 500c0 -60 -28.333 -110 -85 -150c56.667 -40 85 -90 85 -150c0 -55.333 -19.5 -102.5 -58.5 -141.5s-86.167 -58.5 -141.5 -58.5h-300v700h300c55.333 0 102.5 -19.5 141.5 -58.5s58.5 -86.167 58.5 -141.5zM100 600v-200h200c27.333 0 50.833 9.83301 70.5 29.5
s29.5 43.167 29.5 70.5s-9.83301 50.833 -29.5 70.5s-43.167 29.5 -70.5 29.5h-200zM100 300v-200h200c27.333 0 50.833 9.83301 70.5 29.5s29.5 43.167 29.5 70.5s-9.83301 50.833 -29.5 70.5s-43.167 29.5 -70.5 29.5h-200z" />
    <glyph glyph-name="C" unicode="C" 
d="M500 200c0 -55.333 -19.5 -102.5 -58.5 -141.5s-86.167 -58.5 -141.5 -58.5h-100c-55.333 0 -102.5 19.5 -141.5 58.5s-58.5 86.167 -58.5 141.5v300c0 55.333 19.5 102.5 58.5 141.5s86.167 58.5 141.5 58.5h100c55.333 0 102.5 -19.667 141.5 -59
s58.5 -86.333 58.5 -141h-100c0 27.333 -9.83301 50.833 -29.5 70.5s-43.167 29.5 -70.5 29.5h-100c-27.333 0 -50.833 -9.83301 -70.5 -29.5s-29.5 -43.167 -29.5 -70.5v-300c0 -27.333 9.83301 -50.833 29.5 -70.5s43.167 -29.5 70.5 -29.5h100
c27.333 0 50.833 9.83301 70.5 29.5s29.5 43.167 29.5 70.5h100z" />
    <glyph glyph-name="D" unicode="D" 
d="M500 200c0 -55.333 -19.5 -102.5 -58.5 -141.5s-86.167 -58.5 -141.5 -58.5h-300v700h300c55.333 0 102.5 -19.667 141.5 -59s58.5 -86.333 58.5 -141v-300zM400 200v300c0 27.333 -9.83301 50.833 -29.5 70.5s-43.167 29.5 -70.5 29.5h-200v-500h200
c27.333 0 50.833 9.83301 70.5 29.5s29.5 43.167 29.5 70.5z" />
    <glyph glyph-name="E" unicode="E" 
d="M500 0h-500v700h500v-100h-400v-200h300v-100h-300v-200h400v-100z" />
    <glyph glyph-name="F" unicode="F" 
d="M500 600h-400v-200h300v-100h-300v-300h-100v700h500v-100z" />
    <glyph glyph-name="G" unicode="G" 
d="M500 200c0 -55.333 -19.5 -102.5 -58.5 -141.5s-86.167 -58.5 -141.5 -58.5h-100c-55.333 0 -102.5 19.5 -141.5 58.5s-58.5 86.167 -58.5 141.5v300c0 55.333 19.5 102.5 58.5 141.5s86.167 58.5 141.5 58.5h100c55.333 0 102.5 -19.667 141.5 -59
s58.5 -86.333 58.5 -141h-100c0 27.333 -9.83301 50.833 -29.5 70.5s-43.167 29.5 -70.5 29.5h-100c-27.333 0 -50.833 -9.83301 -70.5 -29.5s-29.5 -43.167 -29.5 -70.5v-300c0 -27.333 9.83301 -50.833 29.5 -70.5s43.167 -29.5 70.5 -29.5h100
c27.333 0 50.833 9.83301 70.5 29.5s29.5 43.167 29.5 70.5v100h-100v100h200v-200z" />
    <glyph glyph-name="H" unicode="H" 
d="M500 0h-100v300h-300v-300h-100v700h100v-300h300v300h100v-700z" />
    <glyph glyph-name="I" unicode="I" 
d="M500 0h-500v100h200v500h-200v100h500v-100h-200v-500h200v-100z" />
    <glyph glyph-name="J" unicode="J" 
d="M500 200c0 -55.333 -19.5 -102.5 -58.5 -141.5s-86.167 -58.5 -141.5 -58.5h-100c-55.333 0 -102.5 19.5 -141.5 58.5s-58.5 86.167 -58.5 141.5v100h100v-100c0 -27.333 9.83301 -50.833 29.5 -70.5s43.167 -29.5 70.5 -29.5h100c27.333 0 50.833 9.83301 70.5 29.5
s29.5 43.167 29.5 70.5v500h100v-500z" />
    <glyph glyph-name="K" unicode="K" 
d="M500 0h-100l-300 300v-300h-100v700h100v-300l300 300h100v-37l-313 -313l313 -312v-38z" />
    <glyph glyph-name="L" unicode="L" 
d="M500 0h-500v700h100v-600h400v-100z" />
    <glyph glyph-name="M" unicode="M" 
d="M500 0h-100v525l-100 -100v-125h-100v125l-100 100v-525h-100v700h75l175 -175l175 175h75v-700z" />
    <glyph glyph-name="N" unicode="N" 
d="M500 0h-100v231l-300 300v-531h-100v700h69l331 -331v331h100v-700z" />
    <glyph glyph-name="O" unicode="O" 
d="M500 200c0 -55.333 -19.5 -102.5 -58.5 -141.5s-86.167 -58.5 -141.5 -58.5h-100c-55.333 0 -102.5 19.5 -141.5 58.5s-58.5 86.167 -58.5 141.5v300c0 55.333 19.5 102.5 58.5 141.5s86.167 58.5 141.5 58.5h100c55.333 0 102.5 -19.667 141.5 -59
s58.5 -86.333 58.5 -141v-300zM400 200v300c0 27.333 -9.83301 50.833 -29.5 70.5s-43.167 29.5 -70.5 29.5h-100c-27.333 0 -50.833 -9.83301 -70.5 -29.5s-29.5 -43.167 -29.5 -70.5v-300c0 -27.333 9.83301 -50.833 29.5 -70.5s43.167 -29.5 70.5 -29.5h100
c27.333 0 50.833 9.83301 70.5 29.5s29.5 43.167 29.5 70.5z" />
    <glyph glyph-name="P" unicode="P" 
d="M500 500c0 -54.667 -19.5 -101.667 -58.5 -141s-86.167 -59 -141.5 -59h-200v-300h-100v700h300c55.333 0 102.5 -19.5 141.5 -58.5s58.5 -86.167 58.5 -141.5zM400 500c0 27.333 -9.83301 50.833 -29.5 70.5s-43.167 29.5 -70.5 29.5h-200v-200h200
c27.333 0 50.833 9.83301 70.5 29.5s29.5 43.167 29.5 70.5z" />
    <glyph glyph-name="Q" unicode="Q" 
d="M511 -39l-71 -72l-112 113c-12 -1.33301 -21.333 -2 -28 -2h-100c-55.333 0 -102.5 19.5 -141.5 58.5s-58.5 86.167 -58.5 141.5v300c0 55.333 19.5 102.5 58.5 141.5s86.167 58.5 141.5 58.5h100c55.333 0 102.5 -19.667 141.5 -59s58.5 -86.333 58.5 -141v-300
c0 -64 -24.667 -115.667 -74 -155zM400 200v300c0 27.333 -9.83301 50.833 -29.5 70.5s-43.167 29.5 -70.5 29.5h-100c-27.333 0 -50.833 -9.83301 -70.5 -29.5s-29.5 -43.167 -29.5 -70.5v-300c0 -28 9.83301 -51.833 29.5 -71.5s43.167 -29.167 70.5 -28.5l29 1l-39 39
l71 70l94 -94c30 20 45 48 45 84z" />
    <glyph glyph-name="R" unicode="R" 
d="M400 0v200c0 27.333 -9.83301 50.833 -29.5 70.5s-43.167 29.5 -70.5 29.5h-200v-300h-100v700h300c55.333 0 102.5 -19.5 141.5 -58.5s58.5 -86.167 58.5 -141.5c0 -60 -28.333 -110 -85 -150c56.667 -40 85 -90 85 -150v-200h-100zM100 400h200
c27.333 0 50.833 9.83301 70.5 29.5s29.5 43.167 29.5 70.5s-9.83301 50.833 -29.5 70.5s-43.167 29.5 -70.5 29.5h-200v-200z" />
    <glyph glyph-name="S" unicode="S" 
d="M500 200c0 -55.333 -19.5 -102.5 -58.5 -141.5s-86.167 -58.5 -141.5 -58.5h-100c-55.333 0 -102.5 19.5 -141.5 58.5s-58.5 86.167 -58.5 141.5h100c0 -27.333 9.83301 -50.833 29.5 -70.5s43.167 -29.5 70.5 -29.5h100c27.333 0 50.833 9.83301 70.5 29.5
s29.5 43.167 29.5 70.5s-9.83301 50.833 -29.5 70.5s-43.167 29.5 -70.5 29.5h-100c-55.333 0 -102.5 19.5 -141.5 58.5s-58.5 86.167 -58.5 141.5s19.5 102.5 58.5 141.5s86.167 58.5 141.5 58.5h100c55.333 0 102.5 -19.667 141.5 -59s58.5 -86.333 58.5 -141h-100
c0 27.333 -9.83301 50.833 -29.5 70.5s-43.167 29.5 -70.5 29.5h-100c-27.333 0 -50.833 -9.83301 -70.5 -29.5s-29.5 -43.167 -29.5 -70.5s9.83301 -50.833 29.5 -70.5s43.167 -29.5 70.5 -29.5h100c54.667 0 101.667 -19.667 141 -59s59 -86.333 59 -141z" />
    <glyph glyph-name="T" unicode="T" 
d="M500 600h-200v-600h-100v600h-200v100h500v-100z" />
    <glyph glyph-name="U" unicode="U" 
d="M500 200c0 -55.333 -19.5 -102.5 -58.5 -141.5s-86.167 -58.5 -141.5 -58.5h-100c-55.333 0 -102.5 19.5 -141.5 58.5s-58.5 86.167 -58.5 141.5v500h100v-500c0 -27.333 9.83301 -50.833 29.5 -70.5s43.167 -29.5 70.5 -29.5h100c27.333 0 50.833 9.83301 70.5 29.5
s29.5 43.167 29.5 70.5v500h100v-500z" />
    <glyph glyph-name="V" unicode="V" 
d="M500 500l-250 -500l-250 500v200h100v-177l150 -298l150 300v175h100v-200z" />
    <glyph glyph-name="W" unicode="W" 
d="M500 0h-75l-175 175l-175 -175h-75v700h100v-525l100 100v125h100v-125l100 -100v525h100v-700z" />
    <glyph glyph-name="X" unicode="X" 
d="M500 0h-100v131l-150 150l-150 -150v-131h-100v169l181 181l-181 181v169h100v-131l150 -150l150 150v131h100v-169l-181 -181l181 -181v-169z" />
    <glyph glyph-name="Y" unicode="Y" 
d="M500 431l-200 -200v-231h-100v231l-200 200v269h100v-231l150 -150l150 150v231h100v-269z" />
    <glyph glyph-name="Z" unicode="Z" 
d="M500 0h-500v179l400 399v22h-400v100h500v-162l-400 -400v-38h400v-100z" />
    <glyph glyph-name="bracketleft" unicode="[" 
d="M400 -100h-200v900h200v-100h-100v-700h100v-100z" />
    <glyph glyph-name="backslash" unicode="\" 
d="M600 -146l-82 -45l-483 946l89 46z" />
    <glyph glyph-name="bracketright" unicode="]" 
d="M300 -100h-200v100h100v700h-100v100h200v-900z" />
    <glyph glyph-name="asciicircum" unicode="^" 
d="M532 455l-70 -71l-195 195l-194 -194l-71 71l265 265z" />
    <glyph glyph-name="underscore" unicode="_" 
d="M600 -200h-600v100h600v-100z" />
    <glyph glyph-name="grave" unicode="`" 
d="M425 546l-71 -71l-279 279l71 71z" />
    <glyph glyph-name="a" unicode="a" 
d="M500 500v-500h-100v138l-62 -63c-50 -50 -96 -75 -138 -75c-55.333 0 -102.5 19.5 -141.5 58.5s-58.5 86.167 -58.5 141.5v100c0 55.333 19.5 102.5 58.5 141.5s86.167 58.5 141.5 58.5h300zM200 400c-27.333 0 -50.832 -9.83301 -70.499 -29.5
s-29.5 -43.167 -29.5 -70.5v-100c0 -27.333 9.83301 -50.833 29.5 -70.5s43.167 -29.5 70.5 -29.5c33.333 0 66.666 16.667 99.999 50l100 100v150h-200z" />
    <glyph glyph-name="b" unicode="b" 
d="M500 200c0 -55.333 -19.5 -102.5 -58.5 -141.5s-86.167 -58.5 -141.5 -58.5h-300v700h100v-200h200c54.667 0 101.667 -19.667 141 -59s59 -86.333 59 -141v-100zM400 200v100c0 27.333 -9.83301 50.833 -29.5 70.5s-43.167 29.5 -70.5 29.5h-200v-300h200
c27.333 0 50.833 9.83301 70.5 29.5s29.5 43.167 29.5 70.5z" />
    <glyph glyph-name="c" unicode="c" 
d="M500 0h-300c-54.667 0 -101.667 19.667 -141 59s-59 86.333 -59 141v100c0 54.667 19.667 101.667 59 141s86.333 59 141 59h100c54.667 0 101.667 -19.667 141 -59s59 -86.333 59 -141h-100c0 27.333 -9.83301 50.833 -29.5 70.5s-43.167 29.5 -70.5 29.5h-100
c-27.333 0 -50.833 -9.83301 -70.5 -29.5s-29.5 -43.167 -29.5 -70.5v-100c0 -27.333 9.83301 -50.833 29.5 -70.5s43.167 -29.5 70.5 -29.5h300v-100z" />
    <glyph glyph-name="d" unicode="d" 
d="M500 0h-300c-55.333 0 -102.5 19.5 -141.5 58.5s-58.5 86.167 -58.5 141.5v100c0 55.333 19.5 102.5 58.5 141.5s86.167 58.5 141.5 58.5h200v200h100v-700zM400 100v300h-200c-27.333 0 -50.833 -9.83301 -70.5 -29.5s-29.5 -43.167 -29.5 -70.5v-100
c0 -27.333 9.83301 -50.833 29.5 -70.5s43.167 -29.5 70.5 -29.5h200z" />
    <glyph glyph-name="e" unicode="e" 
d="M500 0h-300c-55.333 0 -102.5 19.5 -141.5 58.5s-58.5 86.167 -58.5 141.5v100c0 55.333 19.5 102.5 58.5 141.5s86.167 58.5 141.5 58.5h100c54.667 0 101.667 -19.667 141 -59s59 -86.333 59 -141v-100h-400c0 -27.333 9.83301 -50.833 29.5 -70.5
s43.167 -29.5 70.5 -29.5h300v-100zM400 300c0 27.333 -9.83301 50.833 -29.5 70.5s-43.167 29.5 -70.5 29.5h-100c-27.333 0 -50.833 -9.83301 -70.5 -29.5s-29.5 -43.167 -29.5 -70.5h300z" />
    <glyph glyph-name="f" unicode="f" 
d="M500 600h-100c-27.333 0 -50.833 -9.83301 -70.5 -29.5s-29.5 -43.167 -29.5 -70.5h100v-100h-100v-400h-100v400h-100v100h100c0 55.333 19.667 102.5 59 141.5s86.333 58.5 141 58.5h100v-100z" />
    <glyph glyph-name="g" unicode="g" 
d="M500 0c0 -54.667 -19.5 -101.667 -58.5 -141s-86.167 -59 -141.5 -59h-200v100h200c27.333 0 50.833 9.83301 70.5 29.5s29.5 43.167 29.5 70.5h-200c-55.333 0 -102.5 19.5 -141.5 58.5s-58.5 86.167 -58.5 141.5v100c0 55.333 19.5 102.5 58.5 141.5
s86.167 58.5 141.5 58.5h300v-500zM400 100v300h-200c-27.333 0 -50.833 -9.83301 -70.5 -29.5s-29.5 -43.167 -29.5 -70.5v-100c0 -27.333 9.83301 -50.833 29.5 -70.5s43.167 -29.5 70.5 -29.5h200z" />
    <glyph glyph-name="h" unicode="h" 
d="M500 0h-100v300c0 27.333 -9.83301 50.833 -29.5 70.5s-43.167 29.5 -70.5 29.5h-200v-400h-100v700h100v-200h200c54.667 0 101.667 -19.667 141 -59s59 -86.333 59 -141v-300z" />
    <glyph glyph-name="i" unicode="i" 
d="M300 650c0 -14 -4.83301 -25.833 -14.5 -35.5s-21.5 -14.5 -35.5 -14.5s-25.833 4.83301 -35.5 14.5s-14.5 21.5 -14.5 35.5s4.83301 25.833 14.5 35.5s21.5 14.5 35.5 14.5s25.833 -4.83301 35.5 -14.5s14.5 -21.5 14.5 -35.5zM400 0h-300v100h100v300h-100v100h200
v-400h100v-100z" />
    <glyph glyph-name="j" unicode="j" 
d="M300 650c0 -14 -4.83301 -25.833 -14.5 -35.5s-21.5 -14.5 -35.5 -14.5s-25.833 4.83301 -35.5 14.5s-14.5 21.5 -14.5 35.5s4.83301 25.833 14.5 35.5s21.5 14.5 35.5 14.5s25.833 -4.83301 35.5 -14.5s14.5 -21.5 14.5 -35.5zM300 0
c0 -54.667 -19.5 -101.667 -58.5 -141s-86.167 -59 -141.5 -59h-100v100h100c27.333 0 50.833 9.83301 70.5 29.5s29.5 43.167 29.5 70.5v400h-100v100h200v-500zM0 -200z" />
    <glyph glyph-name="k" unicode="k" 
d="M500 0h-69l-231 231l-100 -100v-131h-100v700h100v-431l231 231h138l-200 -200l231 -231v-69z" />
    <glyph glyph-name="l" unicode="l" 
d="M400 0h-300v100h100v500h-100v100h200v-600h100v-100z" />
    <glyph glyph-name="m" unicode="m" 
d="M500 0h-100v300c0 27.333 -9.83301 50.833 -29.5 70.5s-43.167 29.5 -70.5 29.5v-400h-100v400h-100v-400h-100v500h300c54.667 0 101.667 -19.667 141 -59s59 -86.333 59 -141v-300z" />
    <glyph glyph-name="n" unicode="n" 
d="M100 500l-0.000976562 -137l63 62c50 50 95.667 75 137 75c55.333 0 102.5 -19.5 141.5 -58.5s58.5 -86.167 58.5 -141.5v-300h-100v300c0 27.333 -9.83301 50.833 -29.5 70.5s-43.167 29.5 -70.5 29.5c-33.333 0 -66.666 -16.667 -99.999 -50l-100 -100v-250h-100v500
h100z" />
    <glyph glyph-name="o" unicode="o" 
d="M500 200c0 -55.333 -19.5 -102.5 -58.5 -141.5s-86.167 -58.5 -141.5 -58.5h-100c-55.333 0 -102.5 19.5 -141.5 58.5s-58.5 86.167 -58.5 141.5v100c0 55.333 19.5 102.5 58.5 141.5s86.167 58.5 141.5 58.5h100c54.667 0 101.667 -19.667 141 -59s59 -86.333 59 -141
v-100zM400 200v100c0 27.333 -9.83301 50.833 -29.5 70.5s-43.167 29.5 -70.5 29.5h-100c-27.333 0 -50.833 -9.83301 -70.5 -29.5s-29.5 -43.167 -29.5 -70.5v-100c0 -27.333 9.83301 -50.833 29.5 -70.5s43.167 -29.5 70.5 -29.5h100c27.333 0 50.833 9.83301 70.5 29.5
s29.5 43.167 29.5 70.5z" />
    <glyph glyph-name="p" unicode="p" 
d="M500 200c0 -55.333 -19.5 -102.5 -58.5 -141.5s-86.167 -58.5 -141.5 -58.5h-200v-200h-100v700h300c54.667 0 101.667 -19.667 141 -59s59 -86.333 59 -141v-100zM400 200v100c0 27.333 -9.83301 50.833 -29.5 70.5s-43.167 29.5 -70.5 29.5h-200v-300h200
c27.333 0 50.833 9.83301 70.5 29.5s29.5 43.167 29.5 70.5zM0 -200z" />
    <glyph glyph-name="q" unicode="q" 
d="M500 -200h-100v200h-200c-55.333 0 -102.5 19.5 -141.5 58.5s-58.5 86.167 -58.5 141.5v100c0 55.333 19.5 102.5 58.5 141.5s86.167 58.5 141.5 58.5h300v-700zM400 100v300h-200c-27.333 0 -50.833 -9.83301 -70.5 -29.5s-29.5 -43.167 -29.5 -70.5v-100
c0 -27.333 9.83301 -50.833 29.5 -70.5s43.167 -29.5 70.5 -29.5h200z" />
    <glyph glyph-name="r" unicode="r" 
d="M100 500l-0.000976562 -137l63 62c50 50 95.667 75 137 75c55.333 0 102.5 -19.5 141.5 -58.5s58.5 -86.167 58.5 -141.5h-100c0 27.333 -9.83301 50.833 -29.5 70.5s-43.167 29.5 -70.5 29.5c-33.333 0 -66.666 -16.667 -99.999 -50l-100 -100v-250h-100v500h100z" />
    <glyph glyph-name="s" unicode="s" 
d="M500 500v-100h-262c-34.667 0 -64.167 -4.83301 -88.5 -14.5s-36.5 -21.5 -36.5 -35.5s12.167 -25.833 36.5 -35.5s53.833 -14.5 88.5 -14.5h25c62 0 115 -14.667 159 -44s66 -64.666 66 -105.999s-22 -76.666 -66 -105.999s-97 -44 -159 -44h-263v100h263
c34 0 63.333 4.83301 88 14.5s37 21.5 37 35.5s-12.333 25.833 -37 35.5s-54 14.5 -88 14.5h-25c-62.667 0 -115.834 14.667 -159.501 44s-65.5 64.666 -65.5 105.999s21.833 76.666 65.5 105.999s96.834 44 159.501 44h262z" />
    <glyph glyph-name="t" unicode="t" 
d="M500 0h-100c-55.333 0 -102.5 19.5 -141.5 58.5s-58.5 86.167 -58.5 141.5v200h-100v100h100v200h100v-200h100v-100h-100v-200c0 -27.333 9.83301 -50.833 29.5 -70.5s43.167 -29.5 70.5 -29.5h100v-100z" />
    <glyph glyph-name="u" unicode="u" 
d="M400 0l0.000976562 138l-62 -63c-50 -50 -96 -75 -138 -75c-55.333 0 -102.5 19.5 -141.5 58.5s-58.5 86.167 -58.5 141.5v300h100v-300c0 -27.333 9.83301 -50.833 29.5 -70.5s43.167 -29.5 70.5 -29.5c33.333 0 66.666 16.667 99.999 50l100 100v250h100v-500h-100z
" />
    <glyph glyph-name="v" unicode="v" 
d="M500 400l-200 -400h-100l-200 400v100h100v-75l150 -300l150 300v75h100v-100z" />
    <glyph glyph-name="w" unicode="w" 
d="M244 100c-27.333 -66.667 -58.6699 -100 -94.0029 -100c-41.333 0 -76.666 22 -105.999 66s-44 97 -44 159v275h100v-275c0 -34.667 4.83301 -64.334 14.5 -89.001s21.5 -37 35.5 -37s25.833 12.333 35.5 37s14.5 54.334 14.5 89.001v275h100v-275
c0 -34.667 4.83301 -64.167 14.5 -88.5s21.5 -36.5 35.5 -36.5s25.833 12.167 35.5 36.5s14.5 53.833 14.5 88.5v275h100v-275c0 -62 -14.667 -115 -44 -159s-64.666 -66 -105.999 -66c-35.333 -0 -66.666 33.333 -93.999 100h-12z" />
    <glyph glyph-name="x" unicode="x" 
d="M500 0h-100v31l-150 150l-150 -150v-31h-100v69l181 181l-181 181v69h100v-31l150 -150l150 150v31h100v-69l-181 -181l181 -181v-69z" />
    <glyph glyph-name="y" unicode="y" 
d="M500 0c0 -54.667 -19.5 -101.667 -58.5 -141s-86.167 -59 -141.5 -59h-200v100h200c27.333 0 50.833 9.83301 70.5 29.5s29.5 43.167 29.5 70.5h-200c-55.333 0 -102.5 19.5 -141.5 58.5s-58.5 86.167 -58.5 141.5v300h100v-300c0 -27.333 9.83301 -50.833 29.5 -70.5
s43.167 -29.5 70.5 -29.5h200v400h100v-500z" />
    <glyph glyph-name="z" unicode="z" 
d="M500 0h-500v69l331 331h-331v100h500v-69l-331 -331h331v-100z" />
    <glyph glyph-name="braceleft" unicode="{" 
d="M400 -200c-55.333 0 -102.5 17.165 -141.5 51.498s-58.5 75.5 -58.5 123.5v225c0 27.333 -9.83301 50.833 -29.5 70.5s-43.167 29.5 -70.5 29.5v100c27.333 0 50.833 9.83301 70.5 29.5s29.5 43.167 29.5 70.5v225c0 48 19.5 89.167 58.5 123.5s86.167 51.5 141.5 51.5
v-100c-27.333 0 -50.833 -9.83301 -70.5 -29.5s-29.5 -43.167 -29.5 -70.5v-250c0 -35.333 -33.333 -66.666 -100 -93.999v-12c66.667 -27.333 100 -58.666 100 -93.999v-250c0 -27.333 9.83301 -50.833 29.5 -70.5s43.167 -29.5 70.5 -29.5v-100z" />
    <glyph glyph-name="bar" unicode="|" 
d="M300 -100h-100v900h100v-900z" />
    <glyph glyph-name="braceright" unicode="}" 
d="M400 300c-27.333 0 -50.833 -9.83105 -70.5 -29.498s-29.5 -43.167 -29.5 -70.5v-225c0 -48 -19.5 -89.167 -58.5 -123.5s-86.167 -51.5 -141.5 -51.5v100c27.333 0 50.833 9.83301 70.5 29.5s29.5 43.167 29.5 70.5v250c0 35.333 33.333 66.666 100 93.999v12
c-66.667 27.333 -100 58.666 -100 93.999v250c0 27.333 -9.83301 50.833 -29.5 70.5s-43.167 29.5 -70.5 29.5v100c55.333 0 102.5 -17.167 141.5 -51.5s58.5 -75.5 58.5 -123.5v-225c0 -27.333 9.83301 -50.833 29.5 -70.5s43.167 -29.5 70.5 -29.5v-100z" />
    <glyph glyph-name="asciitilde" unicode="~" 
d="M500 450c0 -41.333 -14.6689 -76.666 -44.002 -105.999s-64.666 -44 -105.999 -44s-74.666 12.667 -99.999 38c-41.333 41.333 -74.666 62 -99.999 62c-14 0 -25.833 -4.83301 -35.5 -14.5s-14.5 -21.5 -14.5 -35.5v-50h-100v50c0 41.333 14.667 76.666 44 105.999
s64.666 44 105.999 44c42 0 75.333 -12.333 100 -37c42 -42 75.333 -63 100 -63c14 0 25.833 4.83301 35.5 14.5s14.5 21.5 14.5 35.5v50h100v-50z" />
    <glyph glyph-name="uni007F" horiz-adv-x="0" 
 />
    <glyph glyph-name="nonbreakingspace" unicode="&#xa0;" 
 />
    <glyph glyph-name="exclamdown" unicode="&#xa1;" 
d="M400 650c0 -14 -4.83301 -25.833 -14.5 -35.5s-21.5 -14.5 -35.5 -14.5s-25.833 4.83301 -35.5 14.5s-14.5 21.5 -14.5 35.5s4.83301 25.833 14.5 35.5s21.5 14.5 35.5 14.5s25.833 -4.83301 35.5 -14.5s14.5 -21.5 14.5 -35.5zM400 0h-100v500h100v-500z" />
    <glyph glyph-name="cent" unicode="&#xa2;" 
d="M500 0h-200v-100h-100v100c-54.667 0 -101.667 19.667 -141 59s-59 86.333 -59 141v100c0 54.667 19.667 101.667 59 141s86.333 59 141 59v100h100v-100c54.667 0 101.667 -19.667 141 -59s59 -86.333 59 -141h-100c0 27.333 -9.83301 50.833 -29.5 70.5
s-43.167 29.5 -70.5 29.5v-300h200v-100zM200 100v300c-27.333 0 -50.833 -9.83301 -70.5 -29.5s-29.5 -43.167 -29.5 -70.5v-100c0 -27.333 9.83301 -50.833 29.5 -70.5s43.167 -29.5 70.5 -29.5z" />
    <glyph glyph-name="sterling" unicode="&#xa3;" 
d="M500 200c0 -52 -20.333 -98.333 -61 -139s-87 -61 -139 -61h-300v600c0 55.333 19.5 102.5 58.5 141.5s86.167 58.5 141.5 58.5c54.667 0 101.667 -19.667 141 -59s59 -86.333 59 -141h-100c0 27.333 -9.83301 50.833 -29.5 70.5s-43.167 29.5 -70.5 29.5
s-50.833 -9.83301 -70.5 -29.5s-29.5 -43.167 -29.5 -70.5v-100h200v-100h-200v-300h200c24 0 46.667 10.667 68 32s32 44 32 68h100z" />
    <glyph glyph-name="currency" unicode="&#xa4;" 
d="M500 71l-71 -71l-114 115c-20 -10 -41.667 -15 -65 -15s-45 5 -65 15l-114 -115l-71 71l115 114c-10 20 -15 41.667 -15 65s5 45 15 65l-115 114l71 71l114 -115c20 10 41.667 15 65 15s45 -5 65 -15l114 115l71 -71l-115 -114c10 -20 15 -41.667 15 -65s-5 -45 -15 -65z
M300 250c0 14 -4.83301 25.833 -14.5 35.5s-21.5 14.5 -35.5 14.5s-25.833 -4.83301 -35.5 -14.5s-14.5 -21.5 -14.5 -35.5s4.83301 -25.833 14.5 -35.5s21.5 -14.5 35.5 -14.5s25.833 4.83301 35.5 14.5s14.5 21.5 14.5 35.5z" />
    <glyph glyph-name="yen" unicode="&#xa5;" 
d="M537 650l-150 -150h132v-100h-200v-100h200v-100h-200v-200h-100v200h-200v100h200v100h-200v100h131l-150 150l69 69l200 -200l200 200z" />
    <glyph glyph-name="brokenbar" unicode="&#xa6;" horiz-adv-x="0" 
 />
    <glyph glyph-name="section" unicode="&#xa7;" 
d="M500 200h-100v131l-350 349c-14.667 14.667 -22 32.667 -22 54c0 37.333 18.833 74.333 56.5 111s76.167 55 115.5 55h100c55.333 0 102.5 -19.5 141.5 -58.5s58.5 -86.167 58.5 -141.5c0.666992 -68 0.666992 -101.333 0 -100h-100v100
c0 27.333 -9.83301 50.833 -29.5 70.5s-43.167 29.5 -70.5 29.5h-112c-14 0 -25.833 -4.83301 -35.5 -14.5s-14.5 -21.5 -14.5 -35.5c0 -9.33301 2 -17.333 6 -24l356 -357v-169zM450 120c14.667 -14.667 22 -32.667 22 -54c0 -37.333 -18.833 -74.333 -56.5 -111
s-76.167 -55 -115.5 -55h-100c-55.333 0 -102.5 19.5 -141.5 58.5s-58.5 86.167 -58.5 141.5v100h100v-100c0 -27.333 9.83301 -50.833 29.5 -70.5s43.167 -29.5 70.5 -29.5h113c13.333 -0 25 4.83301 35 14.5s15 21.5 15 35.5c0 8.66699 -2 16.667 -6 24l-357 357v169h100
v-131z" />
    <glyph glyph-name="dieresis" unicode="&#xa8;" 
d="M400 650c0 -14 -4.83301 -25.833 -14.5 -35.5s-21.5 -14.5 -35.5 -14.5s-25.833 4.83301 -35.5 14.5s-14.5 21.5 -14.5 35.5s4.83301 25.833 14.5 35.5s21.5 14.5 35.5 14.5s25.833 -4.83301 35.5 -14.5s14.5 -21.5 14.5 -35.5zM200 650
c0 -14 -4.83301 -25.833 -14.5 -35.5s-21.5 -14.5 -35.5 -14.5s-25.833 4.83301 -35.5 14.5s-14.5 21.5 -14.5 35.5s4.83301 25.833 14.5 35.5s21.5 14.5 35.5 14.5s25.833 -4.83301 35.5 -14.5s14.5 -21.5 14.5 -35.5z" />
    <glyph glyph-name="copyright" unicode="&#xa9;" 
d="M500 350c0 -96.667 -34.167 -179.167 -102.5 -247.5s-150.833 -102.5 -247.5 -102.5c-52.667 -0 -102.667 11.333 -150 34v116c44 -33.333 94 -50 150 -50c69.333 0 128.333 24.333 177 73s73 107.667 73 177s-24.5 128.333 -73.5 177s-107.833 73 -176.5 73
c-54.667 0 -104.667 -16.667 -150 -50v116c47.333 22.667 97.333 34 150 34c96.667 0 179.167 -34.167 247.5 -102.5s102.5 -150.833 102.5 -247.5zM300 200l-150 0.00195312c-41.333 0 -76.666 14.667 -105.999 44s-44 64.666 -44 105.999s14.667 76.666 44 105.999
s64.666 44 105.999 44h150v-100h-150c-14 0 -25.833 -4.83301 -35.5 -14.5s-14.5 -21.5 -14.5 -35.5s4.83301 -25.833 14.5 -35.5s21.5 -14.5 35.5 -14.5h150v-100z" />
    <glyph glyph-name="ordfeminine" unicode="&#xaa;" 
d="M500 500h-200c-55.333 0 -102.5 19.5 -141.5 58.5s-58.5 86.167 -58.5 141.5s19.5 102.5 58.5 141.5s86.167 58.5 141.5 58.5h200v-400zM500 300h-400v100h400v-100zM400 600v200h-100c-27.333 0 -50.833 -9.83301 -70.5 -29.5s-29.5 -43.167 -29.5 -70.5
s9.83301 -50.833 29.5 -70.5s43.167 -29.5 70.5 -29.5h100z" />
    <glyph glyph-name="guillemotleft" unicode="&#xab;" 
d="M490 9l-92 -39l-98 230l98 230l92 -39l-84 -191zM190 9l-92 -39l-98 230l98 230l92 -39l-84 -191z" />
    <glyph glyph-name="logicalnot" unicode="&#xac;" 
d="M500 100h-100v200h-400v100h500v-300z" />
    <glyph glyph-name="minus" unicode="&#xad;" horiz-adv-x="0" 
 />
    <glyph glyph-name="minus" unicode="&#x2212;" horiz-adv-x="0" 
 />
    <glyph glyph-name="registered" unicode="&#xae;" 
d="M500 275c0 -48.667 -16.999 -90.001 -50.999 -124.001s-75.333 -51 -124 -51h-95l-99 100h-31v-100h-100v400h150c41.333 0 76.666 -14.667 105.999 -44s44 -64.666 44 -105.999c0 -49.333 -20 -89 -60 -119l31 -31h16c31.333 0 58 11 80 33s33 48.667 33 80v37
c0 69.333 -24.5 128.333 -73.5 177s-107.833 73 -176.5 73c-54.667 0 -104.667 -16.667 -150 -50v116c47.333 22.667 97.333 34 150 34c96.667 0 179.167 -34.167 247.5 -102.5s102.5 -150.833 102.5 -247.5v-75zM200.001 349.999c0 14 -4.83301 25.833 -14.5 35.5
s-21.5 14.5 -35.5 14.5h-50v-100h50c14 0 25.833 4.83301 35.5 14.5s14.5 21.5 14.5 35.5z" />
    <glyph glyph-name="macron" unicode="&#xaf;" 
d="M400 600h-300v100h300v-100z" />
    <glyph glyph-name="macron" unicode="&#x2c9;" 
d="M400 600h-300v100h300v-100z" />
    <glyph glyph-name="degree" unicode="&#xb0;" 
d="M500 600c0 -54.667 -19.5 -101.667 -58.5 -141s-86.167 -59 -141.5 -59s-102.5 19.5 -141.5 58.5s-58.5 86.167 -58.5 141.5s19.5 102.5 58.5 141.5s86.167 58.5 141.5 58.5c54.667 0 101.667 -19.667 141 -59s59 -86.333 59 -141zM400 600
c0 27.333 -9.83301 50.833 -29.5 70.5s-43.167 29.5 -70.5 29.5s-50.833 -9.83301 -70.5 -29.5s-29.5 -43.167 -29.5 -70.5s9.83301 -50.833 29.5 -70.5s43.167 -29.5 70.5 -29.5s50.833 9.83301 70.5 29.5s29.5 43.167 29.5 70.5z" />
    <glyph glyph-name="plusminus" unicode="&#xb1;" 
d="M500 0h-500v100h200v200h-200v100h200v200h100v-200h200v-100h-200v-200h200v-100z" />
    <glyph glyph-name="twosuperior" unicode="&#xb2;" horiz-adv-x="0" 
 />
    <glyph glyph-name="threesuperior" unicode="&#xb3;" horiz-adv-x="0" 
 />
    <glyph glyph-name="acute" unicode="&#xb4;" 
d="M419 650l-163 -162l-69 68l163 163z" />
    <glyph glyph-name="mu" unicode="&#xb5;" 
d="M500 0c-60 0 -110 22.667 -150 68c-38.667 -45.333 -88.667 -68 -150 -68h-100v-200h-100v700h100v-400h100c27.333 0 50.833 9.83301 70.5 29.5s29.5 43.167 29.5 70.5v300h100v-300c0 -27.333 9.83301 -50.833 29.5 -70.5s43.167 -29.5 70.5 -29.5v-100zM0 -200z" />
    <glyph glyph-name="mu" unicode="&#x3bc;" 
d="M500 0c-60 0 -110 22.667 -150 68c-38.667 -45.333 -88.667 -68 -150 -68h-100v-200h-100v700h100v-400h100c27.333 0 50.833 9.83301 70.5 29.5s29.5 43.167 29.5 70.5v300h100v-300c0 -27.333 9.83301 -50.833 29.5 -70.5s43.167 -29.5 70.5 -29.5v-100zM0 -200z" />
    <glyph glyph-name="paragraph" unicode="&#xb6;" 
d="M500 0h-100v300h-100v-300h-100v305c-57.333 11.333 -105 40 -143 86s-57 99 -57 159c-0 69.333 24.333 128.333 73 177s107.667 73 177 73h250v-800zM400 400v300h-100v-300h100zM200 409v282.001c-29.333 -10.667 -53.333 -28.834 -72 -54.501s-28 -54.5 -28 -86.5
s9.33301 -61 28 -87s42.667 -44 72 -54z" />
    <glyph glyph-name="periodcentered" unicode="&#xb7;" 
d="M400 325c0 -27.333 -9.83301 -50.833 -29.5 -70.5s-43.167 -29.5 -70.5 -29.5s-50.833 9.83301 -70.5 29.5s-29.5 43.167 -29.5 70.5s9.83301 50.833 29.5 70.5s43.167 29.5 70.5 29.5s50.833 -9.83301 70.5 -29.5s29.5 -43.167 29.5 -70.5z" />
    <glyph glyph-name="periodcentered" unicode="&#x2219;" 
d="M400 325c0 -27.333 -9.83301 -50.833 -29.5 -70.5s-43.167 -29.5 -70.5 -29.5s-50.833 9.83301 -70.5 29.5s-29.5 43.167 -29.5 70.5s9.83301 50.833 29.5 70.5s43.167 29.5 70.5 29.5s50.833 -9.83301 70.5 -29.5s29.5 -43.167 29.5 -70.5z" />
    <glyph glyph-name="cedilla" unicode="&#xb8;" 
d="M300 -56l-144 -144l-69 69l113 112v19h-100v100h200v-156z" />
    <glyph glyph-name="onesuperior" unicode="&#xb9;" horiz-adv-x="0" 
 />
    <glyph glyph-name="ordmasculine" unicode="&#xba;" 
d="M500 700c0 -55.333 -19.5 -102.5 -58.5 -141.5s-86.167 -58.5 -141.5 -58.5s-102.5 19.5 -141.5 58.5s-58.5 86.167 -58.5 141.5s19.5 102.5 58.5 141.5s86.167 58.5 141.5 58.5c54.667 0 101.667 -19.667 141 -59s59 -86.333 59 -141zM500 300h-400v100h400v-100z
M400 700c0 27.333 -9.83301 50.833 -29.5 70.5s-43.167 29.5 -70.5 29.5s-50.833 -9.83301 -70.5 -29.5s-29.5 -43.167 -29.5 -70.5s9.83301 -50.833 29.5 -70.5s43.167 -29.5 70.5 -29.5s50.833 9.83301 70.5 29.5s29.5 43.167 29.5 70.5z" />
    <glyph glyph-name="guillemotright" unicode="&#xbb;" 
d="M500 200l-98 -230l-92 39l84 191l-84 191l92 39zM200 200l-98 -230l-92 39l84 191l-84 191l92 39z" />
    <glyph glyph-name="onequarter" unicode="&#xbc;" horiz-adv-x="0" 
 />
    <glyph glyph-name="onehalf" unicode="&#xbd;" horiz-adv-x="0" 
 />
    <glyph glyph-name="threequarters" unicode="&#xbe;" horiz-adv-x="0" 
 />
    <glyph glyph-name="questiondown" unicode="&#xbf;" 
d="M300 650c0 -14 -4.83301 -25.833 -14.5 -35.5s-21.5 -14.5 -35.5 -14.5s-25.833 4.83301 -35.5 14.5s-14.5 21.5 -14.5 35.5s4.83301 25.833 14.5 35.5s21.5 14.5 35.5 14.5s25.833 -4.83301 35.5 -14.5s14.5 -21.5 14.5 -35.5zM500 200
c0 -55.333 -19.5 -102.5 -58.5 -141.5s-86.167 -58.5 -141.5 -58.5h-100c-55.333 0 -102.5 19.5 -141.5 58.5s-58.5 86.167 -58.5 141.5c-0 33.333 7.33301 64 22 92l209 208h69v-69l-193 -194c-4.66699 -10 -7 -22.333 -7 -37c0 -27.333 9.83301 -50.833 29.5 -70.5
s43.167 -29.5 70.5 -29.5h100c27.333 0 50.833 9.83301 70.5 29.5s29.5 43.167 29.5 70.5h100z" />
    <glyph glyph-name="Agrave" unicode="&#xc0;" 
d="M213 700l-132 131l69 69l162 -162l-37 -38h38l187 -375v-325h-100v200h-300v-200h-100v325l188 375h25zM250 600l-150 -300h300z" />
    <glyph glyph-name="Aacute" unicode="&#xc1;" 
d="M288 700h25l187 -375v-325h-100v200h-300v-200h-100v325l188 375h37l-37 38l162 162l69 -69zM250 600l-150 -300h300z" />
    <glyph glyph-name="Acircumflex" unicode="&#xc2;" 
d="M250 763l-94 -94l-69 69l163 162l163 -162l-69 -69zM100 200v-200h-100v325l188 375h125l187 -375v-325h-100v200h-300zM250 600l-150 -300h300z" />
    <glyph glyph-name="Atilde" unicode="&#xc3;" 
d="M500 850c0 -41.333 -14.6689 -76.666 -44.002 -105.999s-64.666 -44 -105.999 -44s-74.666 12.667 -99.999 38c-41.333 41.333 -74.666 62 -99.999 62c-14 0 -25.833 -4.83301 -35.5 -14.5s-14.5 -21.5 -14.5 -35.5v-50h-100v50c0 41.333 14.667 76.666 44 105.999
s64.666 44 105.999 44c42 0 75.333 -12.333 100 -37c42 -42 75.333 -63 100 -63c14 0 25.833 4.83301 35.5 14.5s14.5 21.5 14.5 35.5v50h100v-50zM99.998 200v-200h-100v325l188 375h125l187 -375v-325h-100v200h-300zM249.998 600l-150 -300h300z" />
    <glyph glyph-name="Adieresis" unicode="&#xc4;" 
d="M400 850c0 -14 -4.83301 -25.833 -14.5 -35.5s-21.5 -14.5 -35.5 -14.5s-25.833 4.83301 -35.5 14.5s-14.5 21.5 -14.5 35.5s4.83301 25.833 14.5 35.5s21.5 14.5 35.5 14.5s25.833 -4.83301 35.5 -14.5s14.5 -21.5 14.5 -35.5zM200 850
c0 -14 -4.83301 -25.833 -14.5 -35.5s-21.5 -14.5 -35.5 -14.5s-25.833 4.83301 -35.5 14.5s-14.5 21.5 -14.5 35.5s4.83301 25.833 14.5 35.5s21.5 14.5 35.5 14.5s25.833 -4.83301 35.5 -14.5s14.5 -21.5 14.5 -35.5zM100 200v-200h-100v325l188 375h125l187 -375v-325
h-100v200h-300zM250 600l-150 -300h300z" />
    <glyph glyph-name="Aring" unicode="&#xc5;" 
d="M155 634c-36.667 30 -54.998 68.667 -54.998 116c0 41.333 14.667 76.666 44 105.999s64.666 44 105.999 44s76.666 -14.667 105.999 -44s44 -64.666 44 -105.999c0 -47.333 -18.333 -86 -55 -116l155 -309v-325h-100v200h-300v-200h-100v325zM200.002 750
c0 -14 4.83301 -25.833 14.5 -35.5s21.5 -14.5 35.5 -14.5s25.833 4.83301 35.5 14.5s14.5 21.5 14.5 35.5s-4.83301 25.833 -14.5 35.5s-21.5 14.5 -35.5 14.5s-25.833 -4.83301 -35.5 -14.5s-14.5 -21.5 -14.5 -35.5zM250.002 600l-150 -300h300z" />
    <glyph glyph-name="AE" unicode="&#xc6;" 
d="M500 0h-300v300h-100v-300h-100v500c0 55.333 19.5 102.5 58.5 141.5s86.167 58.5 141.5 58.5h300v-100h-200v-200h100v-100h-100v-200h200v-100zM200 400v200c-27.333 0 -50.833 -9.83301 -70.5 -29.5s-29.5 -43.167 -29.5 -70.5v-100h100z" />
    <glyph glyph-name="Ccedilla" unicode="&#xc7;" 
d="M500 200c0 -55.333 -19.5 -102.5 -58.5 -141.5s-86.167 -58.5 -141.5 -58.5h-19l38 -37l-163 -163l-69 69l132 131h-19c-55.333 0 -102.5 19.5 -141.5 58.5s-58.5 86.167 -58.5 141.5v300c0 55.333 19.5 102.5 58.5 141.5s86.167 58.5 141.5 58.5h100
c55.333 0 102.5 -19.667 141.5 -59s58.5 -86.333 58.5 -141h-100c0 27.333 -9.83301 50.833 -29.5 70.5s-43.167 29.5 -70.5 29.5h-100c-27.333 0 -50.833 -9.83301 -70.5 -29.5s-29.5 -43.167 -29.5 -70.5v-300c0 -27.333 9.83301 -50.833 29.5 -70.5
s43.167 -29.5 70.5 -29.5h100c27.333 0 50.833 9.83301 70.5 29.5s29.5 43.167 29.5 70.5h100zM281 0h-62h62z" />
    <glyph glyph-name="Egrave" unicode="&#xc8;" 
d="M275 700h225v-100h-400v-200h300v-100h-300v-200h400v-100h-500v700h213l-132 131l69 69l163 -162z" />
    <glyph glyph-name="Eacute" unicode="&#xc9;" 
d="M294 700h206v-100h-400v-200h300v-100h-300v-200h400v-100h-500v700h219l-31 31l162 163l69 -69z" />
    <glyph glyph-name="Ecircumflex" unicode="&#xca;" 
d="M500 0h-500v700h125l-38 37l163 163l162 -163l-37 -37h125v-100h-400v-200h300v-100h-300v-200h400v-100zM313 700l-63 62l-63 -62h126z" />
    <glyph glyph-name="Edieresis" unicode="&#xcb;" 
d="M400 850c0 -14 -4.83301 -25.833 -14.5 -35.5s-21.5 -14.5 -35.5 -14.5s-25.833 4.83301 -35.5 14.5s-14.5 21.5 -14.5 35.5s4.83301 25.833 14.5 35.5s21.5 14.5 35.5 14.5s25.833 -4.83301 35.5 -14.5s14.5 -21.5 14.5 -35.5zM200 850
c0 -14 -4.83301 -25.833 -14.5 -35.5s-21.5 -14.5 -35.5 -14.5s-25.833 4.83301 -35.5 14.5s-14.5 21.5 -14.5 35.5s4.83301 25.833 14.5 35.5s21.5 14.5 35.5 14.5s25.833 -4.83301 35.5 -14.5s14.5 -21.5 14.5 -35.5zM500 0h-500v700h500v-100h-400v-200h300v-100h-300
v-200h400v-100z" />
    <glyph glyph-name="Igrave" unicode="&#xcc;" 
d="M213 700l-132 131l69 69l163 -162l-38 -38h225v-100h-200v-500h200v-100h-500v100h200v500h-200v100h213z" />
    <glyph glyph-name="Iacute" unicode="&#xcd;" 
d="M288 700h212v-100h-200v-500h200v-100h-500v100h200v500h-200v100h225l-37 38l162 162l69 -69z" />
    <glyph glyph-name="Icircumflex" unicode="&#xce;" 
d="M500 0h-500v100h200v500h-200v100h124c-6 6.66699 -18.333 19 -37 37l163 163l162 -163l-37 -37h125v-100h-200v-500h200v-100zM312 700c-10.667 11.333 -31.333 32 -62 62l-63 -62h125z" />
    <glyph glyph-name="Idieresis" unicode="&#xcf;" 
d="M400 850c0 -14 -4.83301 -25.833 -14.5 -35.5s-21.5 -14.5 -35.5 -14.5s-25.833 4.83301 -35.5 14.5s-14.5 21.5 -14.5 35.5s4.83301 25.833 14.5 35.5s21.5 14.5 35.5 14.5s25.833 -4.83301 35.5 -14.5s14.5 -21.5 14.5 -35.5zM200 850
c0 -14 -4.83301 -25.833 -14.5 -35.5s-21.5 -14.5 -35.5 -14.5s-25.833 4.83301 -35.5 14.5s-14.5 21.5 -14.5 35.5s4.83301 25.833 14.5 35.5s21.5 14.5 35.5 14.5s25.833 -4.83301 35.5 -14.5s14.5 -21.5 14.5 -35.5zM500 0h-500v100h200v500h-200v100h500v-100h-200v-500
h200v-100z" />
    <glyph glyph-name="Eth" unicode="&#xd0;" horiz-adv-x="0" 
 />
    <glyph glyph-name="Ntilde" unicode="&#xd1;" 
d="M500 860c0 -41.333 -14.6689 -76.666 -44.002 -105.999s-64.666 -44 -105.999 -44s-74.666 12.667 -99.999 38c-41.333 41.333 -74.666 62 -99.999 62c-14 0 -25.833 -4.83301 -35.5 -14.5s-14.5 -21.5 -14.5 -35.5v-50h-100v50c0 41.333 14.667 76.666 44 105.999
s64.666 44 105.999 44c42 0 75.333 -12.333 100 -37c42 -42 75.333 -63 100 -63c14 0 25.833 4.83301 35.5 14.5s14.5 21.5 14.5 35.5v50h100v-50zM499.998 10h-100v231l-300 300v-531h-100v695h69l331 -326v326h100v-695z" />
    <glyph glyph-name="Ograve" unicode="&#xd2;" 
d="M275 700h25c55.333 0 102.5 -19.5 141.5 -58.5s58.5 -86.167 58.5 -141.5v-300c0 -55.333 -19.5 -102.5 -58.5 -141.5s-86.167 -58.5 -141.5 -58.5h-100c-55.333 0 -102.5 19.5 -141.5 58.5s-58.5 86.167 -58.5 141.5v300c0 55.333 19.5 102.5 58.5 141.5
s86.167 58.5 141.5 58.5h13l-132 131l69 69l163 -162zM300 600h-100c-27.333 0 -50.833 -9.83301 -70.5 -29.5s-29.5 -43.167 -29.5 -70.5v-300c0 -27.333 9.83301 -50.833 29.5 -70.5s43.167 -29.5 70.5 -29.5h100c27.333 0 50.833 9.83301 70.5 29.5
s29.5 43.167 29.5 70.5v300c0 27.333 -9.83301 50.833 -29.5 70.5s-43.167 29.5 -70.5 29.5z" />
    <glyph glyph-name="Oacute" unicode="&#xd3;" 
d="M188 738l162 162l69 -69l-131 -131h12c55.333 0 102.5 -19.5 141.5 -58.5s58.5 -86.167 58.5 -141.5v-300c0 -55.333 -19.5 -102.5 -58.5 -141.5s-86.167 -58.5 -141.5 -58.5h-100c-55.333 0 -102.5 19.5 -141.5 58.5s-58.5 86.167 -58.5 141.5v300
c0 55.333 19.5 102.5 58.5 141.5s86.167 58.5 141.5 58.5h25zM300 600h-100c-27.333 0 -50.833 -9.83301 -70.5 -29.5s-29.5 -43.167 -29.5 -70.5v-300c0 -27.333 9.83301 -50.833 29.5 -70.5s43.167 -29.5 70.5 -29.5h100c27.333 0 50.833 9.83301 70.5 29.5
s29.5 43.167 29.5 70.5v300c0 27.333 -9.83301 50.833 -29.5 70.5s-43.167 29.5 -70.5 29.5z" />
    <glyph glyph-name="Ocircumflex" unicode="&#xd4;" 
d="M500 200c0 -55.333 -19.499 -102.501 -58.499 -141.501s-86.167 -58.5 -141.5 -58.5h-100c-55.333 0 -102.5 19.5 -141.5 58.5s-58.5 86.167 -58.5 141.5v300c0 42.667 12.667 81.334 38 116.001s57.666 59 96.999 73l-48 48l163 163l162 -163l-48 -48
c40 -13.333 72.667 -37.333 98 -72s38 -73.667 38 -117v-300zM313.001 699.999l-63 62l-63 -62h126zM400.001 199.999v300c0 27.333 -9.83301 50.833 -29.5 70.5s-43.167 29.5 -70.5 29.5h-100c-27.333 0 -50.833 -9.83301 -70.5 -29.5s-29.5 -43.167 -29.5 -70.5v-300
c0 -27.333 9.83301 -50.833 29.5 -70.5s43.167 -29.5 70.5 -29.5h100c27.333 0 50.833 9.83301 70.5 29.5s29.5 43.167 29.5 70.5z" />
    <glyph glyph-name="Otilde" unicode="&#xd5;" 
d="M500 850c0 -41.333 -14.6689 -76.666 -44.002 -105.999s-64.666 -44 -105.999 -44s-74.666 12.667 -99.999 38c-41.333 41.333 -74.666 62 -99.999 62c-14 0 -25.833 -4.83301 -35.5 -14.5s-14.5 -21.5 -14.5 -35.5v-50h-100v50c0 41.333 14.667 76.666 44 105.999
s64.666 44 105.999 44c42 0 75.333 -12.333 100 -37c42 -42 75.333 -63 100 -63c14 0 25.833 4.83301 35.5 14.5s14.5 21.5 14.5 35.5v50h100v-50zM499.998 200c0 -55.333 -19.5 -102.5 -58.5 -141.5s-86.167 -58.5 -141.5 -58.5h-100c-55.333 0 -102.5 19.5 -141.5 58.5
s-58.5 86.167 -58.5 141.5v300c0 55.333 19.5 102.5 58.5 141.5s86.167 58.5 141.5 58.5h100c55.333 0 102.5 -19.667 141.5 -59s58.5 -86.333 58.5 -141v-300zM399.998 200v300c0 27.333 -9.83301 50.833 -29.5 70.5s-43.167 29.5 -70.5 29.5h-100
c-27.333 0 -50.833 -9.83301 -70.5 -29.5s-29.5 -43.167 -29.5 -70.5v-300c0 -27.333 9.83301 -50.833 29.5 -70.5s43.167 -29.5 70.5 -29.5h100c27.333 0 50.833 9.83301 70.5 29.5s29.5 43.167 29.5 70.5z" />
    <glyph glyph-name="Odieresis" unicode="&#xd6;" 
d="M400 850c0 -14 -4.83301 -25.833 -14.5 -35.5s-21.5 -14.5 -35.5 -14.5s-25.833 4.83301 -35.5 14.5s-14.5 21.5 -14.5 35.5s4.83301 25.833 14.5 35.5s21.5 14.5 35.5 14.5s25.833 -4.83301 35.5 -14.5s14.5 -21.5 14.5 -35.5zM200 850
c0 -14 -4.83301 -25.833 -14.5 -35.5s-21.5 -14.5 -35.5 -14.5s-25.833 4.83301 -35.5 14.5s-14.5 21.5 -14.5 35.5s4.83301 25.833 14.5 35.5s21.5 14.5 35.5 14.5s25.833 -4.83301 35.5 -14.5s14.5 -21.5 14.5 -35.5zM500 200c0 -55.333 -19.5 -102.5 -58.5 -141.5
s-86.167 -58.5 -141.5 -58.5h-100c-55.333 0 -102.5 19.5 -141.5 58.5s-58.5 86.167 -58.5 141.5v300c0 55.333 19.5 102.5 58.5 141.5s86.167 58.5 141.5 58.5h100c55.333 0 102.5 -19.667 141.5 -59s58.5 -86.333 58.5 -141v-300zM400 200v300
c0 27.333 -9.83301 50.833 -29.5 70.5s-43.167 29.5 -70.5 29.5h-100c-27.333 0 -50.833 -9.83301 -70.5 -29.5s-29.5 -43.167 -29.5 -70.5v-300c0 -27.333 9.83301 -50.833 29.5 -70.5s43.167 -29.5 70.5 -29.5h100c27.333 0 50.833 9.83301 70.5 29.5
s29.5 43.167 29.5 70.5z" />
    <glyph glyph-name="Oslash" unicode="&#xd8;" 
d="M500 200c0 -55.333 -19.5 -102.5 -58.5 -141.5s-86.167 -58.5 -141.5 -58.5h-100c-55.333 0 -102.5 19.5 -141.5 58.5s-58.5 86.167 -58.5 141.5v300c0 55.333 19.5 102.5 58.5 141.5s86.167 58.5 141.5 58.5h100c55.333 0 102.5 -19.667 141.5 -59
s58.5 -86.333 58.5 -141v-300zM385 554c-20 30.667 -48.333 46 -85 46h-100c-27.333 0 -50.833 -9.83301 -70.5 -29.5s-29.5 -43.167 -29.5 -70.5v-231zM400 200v229l-283 -283c20 -30.667 47.667 -46 83 -46h100c27.333 0 50.833 9.83301 70.5 29.5s29.5 43.167 29.5 70.5z
" />
    <glyph glyph-name="Ugrave" unicode="&#xd9;" 
d="M312 737l-68 -68l-163 162l69 69zM500 200c0 -55.333 -19.5 -102.5 -58.5 -141.5s-86.167 -58.5 -141.5 -58.5h-100c-55.333 0 -102.5 19.5 -141.5 58.5s-58.5 86.167 -58.5 141.5v500h100v-500c0 -27.333 9.83301 -50.833 29.5 -70.5s43.167 -29.5 70.5 -29.5h100
c27.333 0 50.833 9.83301 70.5 29.5s29.5 43.167 29.5 70.5v500h100v-500z" />
    <glyph glyph-name="Uacute" unicode="&#xda;" 
d="M419 831l-163 -162l-69 68l163 163zM500 200c0 -55.333 -19.5 -102.5 -58.5 -141.5s-86.167 -58.5 -141.5 -58.5h-100c-55.333 0 -102.5 19.5 -141.5 58.5s-58.5 86.167 -58.5 141.5v500h100v-500c0 -27.333 9.83301 -50.833 29.5 -70.5s43.167 -29.5 70.5 -29.5h100
c27.333 0 50.833 9.83301 70.5 29.5s29.5 43.167 29.5 70.5v500h100v-500z" />
    <glyph glyph-name="Ucircumflex" unicode="&#xdb;" 
d="M412 737l-68 -68l-94 93l-94 -93l-69 68l163 163zM500 200c0 -55.333 -19.5 -102.5 -58.5 -141.5s-86.167 -58.5 -141.5 -58.5h-100c-55.333 0 -102.5 19.5 -141.5 58.5s-58.5 86.167 -58.5 141.5v500h100v-500c0 -27.333 9.83301 -50.833 29.5 -70.5
s43.167 -29.5 70.5 -29.5h100c27.333 0 50.833 9.83301 70.5 29.5s29.5 43.167 29.5 70.5v500h100v-500z" />
    <glyph glyph-name="Udieresis" unicode="&#xdc;" 
d="M400 850c0 -14 -4.83301 -25.833 -14.5 -35.5s-21.5 -14.5 -35.5 -14.5s-25.833 4.83301 -35.5 14.5s-14.5 21.5 -14.5 35.5s4.83301 25.833 14.5 35.5s21.5 14.5 35.5 14.5s25.833 -4.83301 35.5 -14.5s14.5 -21.5 14.5 -35.5zM200 850
c0 -14 -4.83301 -25.833 -14.5 -35.5s-21.5 -14.5 -35.5 -14.5s-25.833 4.83301 -35.5 14.5s-14.5 21.5 -14.5 35.5s4.83301 25.833 14.5 35.5s21.5 14.5 35.5 14.5s25.833 -4.83301 35.5 -14.5s14.5 -21.5 14.5 -35.5zM500 200c0 -55.333 -19.5 -102.5 -58.5 -141.5
s-86.167 -58.5 -141.5 -58.5h-100c-55.333 0 -102.5 19.5 -141.5 58.5s-58.5 86.167 -58.5 141.5v500h100v-500c0 -27.333 9.83301 -50.833 29.5 -70.5s43.167 -29.5 70.5 -29.5h100c27.333 0 50.833 9.83301 70.5 29.5s29.5 43.167 29.5 70.5v500h100v-500z" />
    <glyph glyph-name="Yacute" unicode="&#xdd;" horiz-adv-x="0" 
 />
    <glyph glyph-name="Thorn" unicode="&#xde;" horiz-adv-x="0" 
 />
    <glyph glyph-name="germandbls" unicode="&#xdf;" 
d="M500 200c0 -55.333 -19.5 -102.499 -58.5 -141.499s-86.167 -58.5 -141.5 -58.5h-100v100h100c27.333 0 50.833 9.83301 70.5 29.5s29.5 43.167 29.5 70.5c0 39.333 -16.667 68.833 -50 88.5s-50 48.5 -50 86.5v50c0 27.333 8.66699 49.666 26 66.999l48 42
c17.333 17.333 26 39.333 26 66c0 27.333 -9.83301 50.833 -29.5 70.5s-43.167 29.5 -70.5 29.5c-15.333 0 -28.333 -2.66699 -39 -8l-133 -132c-18.667 -18.667 -28 -41.667 -28 -69v-591h-100v606c0 42 13.667 76.667 41 104l190 190h69c54.667 0 101.667 -19.667 141 -59
s59 -86.333 59 -141c0 -66.667 -26.667 -120 -80 -160c-13.333 -10 -20 -23.333 -20 -40c0 -16 6 -28.667 18 -38c54.667 -42.667 82 -96.667 82 -162z" />
    <glyph glyph-name="agrave" unicode="&#xe0;" 
d="M412 656l-68 -68l-163 162l69 69zM500 500v-500h-100v138l-62 -63c-50 -50 -96 -75 -138 -75c-55.333 0 -102.5 19.5 -141.5 58.5s-58.5 86.167 -58.5 141.5v100c0 55.333 19.5 102.5 58.5 141.5s86.167 58.5 141.5 58.5h300zM200 400
c-27.333 0 -50.832 -9.83301 -70.499 -29.5s-29.5 -43.167 -29.5 -70.5v-100c0 -27.333 9.83301 -50.833 29.5 -70.5s43.167 -29.5 70.5 -29.5c33.333 0 66.666 16.667 99.999 50l100 100v150h-200z" />
    <glyph glyph-name="aacute" unicode="&#xe1;" 
d="M419 750l-163 -162l-69 68l163 163zM500 500v-500h-100v138l-62 -63c-50 -50 -96 -75 -138 -75c-55.333 0 -102.5 19.5 -141.5 58.5s-58.5 86.167 -58.5 141.5v100c0 55.333 19.5 102.5 58.5 141.5s86.167 58.5 141.5 58.5h300zM200 400
c-27.333 0 -50.832 -9.83301 -70.499 -29.5s-29.5 -43.167 -29.5 -70.5v-100c0 -27.333 9.83301 -50.833 29.5 -70.5s43.167 -29.5 70.5 -29.5c33.333 0 66.666 16.667 99.999 50l100 100v150h-200z" />
    <glyph glyph-name="acircumflex" unicode="&#xe2;" 
d="M412 656l-68 -68l-94 93l-94 -93l-69 68l163 163zM500 500v-500h-100v138l-62 -63c-50 -50 -96 -75 -138 -75c-55.333 0 -102.5 19.5 -141.5 58.5s-58.5 86.167 -58.5 141.5v100c0 55.333 19.5 102.5 58.5 141.5s86.167 58.5 141.5 58.5h300zM200 400
c-27.333 0 -50.832 -9.83301 -70.499 -29.5s-29.5 -43.167 -29.5 -70.5v-100c0 -27.333 9.83301 -50.833 29.5 -70.5s43.167 -29.5 70.5 -29.5c33.333 0 66.666 16.667 99.999 50l100 100v150h-200z" />
    <glyph glyph-name="atilde" unicode="&#xe3;" 
d="M500 750c0 -41.333 -14.6689 -76.666 -44.002 -105.999s-64.666 -44 -105.999 -44s-74.666 12.667 -99.999 38c-41.333 41.333 -74.666 62 -99.999 62c-14 0 -25.833 -4.83301 -35.5 -14.5s-14.5 -21.5 -14.5 -35.5v-50h-100v50c0 41.333 14.667 76.666 44 105.999
s64.666 44 105.999 44c42 0 75.333 -12.333 100 -37c42 -42 75.333 -63 100 -63c14 0 25.833 4.83301 35.5 14.5s14.5 21.5 14.5 35.5v50h100v-50zM499.998 500v-500h-100v138l-62 -63c-50 -50 -96 -75 -138 -75c-55.333 0 -102.5 19.5 -141.5 58.5
s-58.5 86.167 -58.5 141.5v100c0 55.333 19.5 102.5 58.5 141.5s86.167 58.5 141.5 58.5h300zM199.998 400c-27.333 0 -50.832 -9.83301 -70.499 -29.5s-29.5 -43.167 -29.5 -70.5v-100c0 -27.333 9.83301 -50.833 29.5 -70.5s43.167 -29.5 70.5 -29.5
c33.333 0 66.666 16.667 99.999 50l100 100v150h-200z" />
    <glyph glyph-name="adieresis" unicode="&#xe4;" 
d="M400 650c0 -14 -4.83301 -25.833 -14.5 -35.5s-21.5 -14.5 -35.5 -14.5s-25.833 4.83301 -35.5 14.5s-14.5 21.5 -14.5 35.5s4.83301 25.833 14.5 35.5s21.5 14.5 35.5 14.5s25.833 -4.83301 35.5 -14.5s14.5 -21.5 14.5 -35.5zM200 650
c0 -14 -4.83301 -25.833 -14.5 -35.5s-21.5 -14.5 -35.5 -14.5s-25.833 4.83301 -35.5 14.5s-14.5 21.5 -14.5 35.5s4.83301 25.833 14.5 35.5s21.5 14.5 35.5 14.5s25.833 -4.83301 35.5 -14.5s14.5 -21.5 14.5 -35.5zM500 500v-500h-100v138l-62 -63
c-50 -50 -96 -75 -138 -75c-55.333 0 -102.5 19.5 -141.5 58.5s-58.5 86.167 -58.5 141.5v100c0 55.333 19.5 102.5 58.5 141.5s86.167 58.5 141.5 58.5h300zM200 400c-27.333 0 -50.832 -9.83301 -70.499 -29.5s-29.5 -43.167 -29.5 -70.5v-100
c0 -27.333 9.83301 -50.833 29.5 -70.5s43.167 -29.5 70.5 -29.5c33.333 0 66.666 16.667 99.999 50l100 100v150h-200z" />
    <glyph glyph-name="aring" unicode="&#xe5;" 
d="M250 500c-41.333 0 -76.666 14.667 -105.999 44s-44 64.666 -44 105.999s14.667 76.666 44 105.999s64.666 44 105.999 44s76.666 -14.667 105.999 -44s44 -64.666 44 -105.999s-14.667 -76.666 -44 -105.999s-64.666 -44 -105.999 -44h250v-500h-100v138l-62 -63
c-50 -50 -96 -75 -138 -75c-55.333 0 -102.5 19.5 -141.5 58.5s-58.5 86.167 -58.5 141.5v100c0 55.333 19.5 102.5 58.5 141.5s86.167 58.5 141.5 58.5h50zM200 650c0 -14 4.83301 -25.833 14.5 -35.5s21.5 -14.5 35.5 -14.5s25.833 4.83301 35.5 14.5s14.5 21.5 14.5 35.5
s-4.83301 25.833 -14.5 35.5s-21.5 14.5 -35.5 14.5s-25.833 -4.83301 -35.5 -14.5s-14.5 -21.5 -14.5 -35.5zM200 400c-27.333 0 -50.832 -9.83301 -70.499 -29.5s-29.5 -43.167 -29.5 -70.5v-100c0 -27.333 9.83301 -50.833 29.5 -70.5s43.167 -29.5 70.5 -29.5
c33.333 0 66.666 16.667 99.999 50l100 100v150h-200z" />
    <glyph glyph-name="ae" unicode="&#xe6;" 
d="M500 0h-300c-55.333 0 -102.5 19.5 -141.5 58.5s-58.5 86.167 -58.5 141.5v100c0 55.333 19.5 102.5 58.5 141.5s86.167 58.5 141.5 58.5h100c54.667 0 101.667 -19.667 141 -59s59 -86.333 59 -141v-100h-200v-100h200v-100zM400 300
c0 27.333 -9.83301 50.833 -29.5 70.5s-43.167 29.5 -70.5 29.5v-100h100zM200 100v300c-27.333 0 -50.833 -9.83301 -70.5 -29.5s-29.5 -43.167 -29.5 -70.5v-100c0 -27.333 9.83301 -50.833 29.5 -70.5s43.167 -29.5 70.5 -29.5z" />
    <glyph glyph-name="ccedilla" unicode="&#xe7;" 
d="M500 0h-219l38 -37l-163 -163l-69 69l132 131h-19c-55.333 0 -102.5 19.667 -141.5 59s-58.5 86.333 -58.5 141v100c0 54.667 19.667 101.667 59 141s86.333 59 141 59h100c54.667 0 101.667 -19.667 141 -59s59 -86.333 59 -141h-100
c0 27.333 -9.83301 50.833 -29.5 70.5s-43.167 29.5 -70.5 29.5h-100c-27.333 0 -50.833 -9.83301 -70.5 -29.5s-29.5 -43.167 -29.5 -70.5v-100c0 -27.333 9.83301 -50.833 29.5 -70.5s43.167 -29.5 70.5 -29.5h300v-100zM281 0h-62h62z" />
    <glyph glyph-name="egrave" unicode="&#xe8;" 
d="M312 656l-68 -68l-163 162l69 69zM500 0h-300c-55.333 0 -102.5 19.5 -141.5 58.5s-58.5 86.167 -58.5 141.5v100c0 55.333 19.5 102.5 58.5 141.5s86.167 58.5 141.5 58.5h100c54.667 0 101.667 -19.667 141 -59s59 -86.333 59 -141v-100h-400
c0 -27.333 9.83301 -50.833 29.5 -70.5s43.167 -29.5 70.5 -29.5h300v-100zM400 300c0 27.333 -9.83301 50.833 -29.5 70.5s-43.167 29.5 -70.5 29.5h-100c-27.333 0 -50.833 -9.83301 -70.5 -29.5s-29.5 -43.167 -29.5 -70.5h300z" />
    <glyph glyph-name="eacute" unicode="&#xe9;" 
d="M419 750l-163 -162l-69 68l163 163zM500 0h-300c-55.333 0 -102.5 19.5 -141.5 58.5s-58.5 86.167 -58.5 141.5v100c0 55.333 19.5 102.5 58.5 141.5s86.167 58.5 141.5 58.5h100c54.667 0 101.667 -19.667 141 -59s59 -86.333 59 -141v-100h-400
c0 -27.333 9.83301 -50.833 29.5 -70.5s43.167 -29.5 70.5 -29.5h300v-100zM400 300c0 27.333 -9.83301 50.833 -29.5 70.5s-43.167 29.5 -70.5 29.5h-100c-27.333 0 -50.833 -9.83301 -70.5 -29.5s-29.5 -43.167 -29.5 -70.5h300z" />
    <glyph glyph-name="ecircumflex" unicode="&#xea;" 
d="M412 656l-68 -68l-94 93l-94 -93l-69 68l163 163zM500 0h-300c-55.333 0 -102.5 19.5 -141.5 58.5s-58.5 86.167 -58.5 141.5v100c0 55.333 19.5 102.5 58.5 141.5s86.167 58.5 141.5 58.5h100c54.667 0 101.667 -19.667 141 -59s59 -86.333 59 -141v-100h-400
c0 -27.333 9.83301 -50.833 29.5 -70.5s43.167 -29.5 70.5 -29.5h300v-100zM400 300c0 27.333 -9.83301 50.833 -29.5 70.5s-43.167 29.5 -70.5 29.5h-100c-27.333 0 -50.833 -9.83301 -70.5 -29.5s-29.5 -43.167 -29.5 -70.5h300z" />
    <glyph glyph-name="edieresis" unicode="&#xeb;" 
d="M400 650c0 -14 -4.83301 -25.833 -14.5 -35.5s-21.5 -14.5 -35.5 -14.5s-25.833 4.83301 -35.5 14.5s-14.5 21.5 -14.5 35.5s4.83301 25.833 14.5 35.5s21.5 14.5 35.5 14.5s25.833 -4.83301 35.5 -14.5s14.5 -21.5 14.5 -35.5zM200 650
c0 -14 -4.83301 -25.833 -14.5 -35.5s-21.5 -14.5 -35.5 -14.5s-25.833 4.83301 -35.5 14.5s-14.5 21.5 -14.5 35.5s4.83301 25.833 14.5 35.5s21.5 14.5 35.5 14.5s25.833 -4.83301 35.5 -14.5s14.5 -21.5 14.5 -35.5zM500 0h-300c-55.333 0 -102.5 19.5 -141.5 58.5
s-58.5 86.167 -58.5 141.5v100c0 55.333 19.5 102.5 58.5 141.5s86.167 58.5 141.5 58.5h100c54.667 0 101.667 -19.667 141 -59s59 -86.333 59 -141v-100h-400c0 -27.333 9.83301 -50.833 29.5 -70.5s43.167 -29.5 70.5 -29.5h300v-100zM400 300
c0 27.333 -9.83301 50.833 -29.5 70.5s-43.167 29.5 -70.5 29.5h-100c-27.333 0 -50.833 -9.83301 -70.5 -29.5s-29.5 -43.167 -29.5 -70.5h300z" />
    <glyph glyph-name="igrave" unicode="&#xec;" 
d="M312 656l-68 -68l-163 162l69 69zM400 0h-300v100h100v300h-100v100h200v-400h100v-100z" />
    <glyph glyph-name="iacute" unicode="&#xed;" 
d="M419 750l-163 -162l-69 68l163 163zM400 0h-300v100h100v300h-100v100h200v-400h100v-100z" />
    <glyph glyph-name="icircumflex" unicode="&#xee;" 
d="M412 656l-68 -68l-94 93l-94 -93l-69 68l163 163zM400 0h-300v100h100v300h-100v100h200v-400h100v-100z" />
    <glyph glyph-name="idieresis" unicode="&#xef;" 
d="M400 650c0 -14 -4.83301 -25.833 -14.5 -35.5s-21.5 -14.5 -35.5 -14.5s-25.833 4.83301 -35.5 14.5s-14.5 21.5 -14.5 35.5s4.83301 25.833 14.5 35.5s21.5 14.5 35.5 14.5s25.833 -4.83301 35.5 -14.5s14.5 -21.5 14.5 -35.5zM200 650
c0 -14 -4.83301 -25.833 -14.5 -35.5s-21.5 -14.5 -35.5 -14.5s-25.833 4.83301 -35.5 14.5s-14.5 21.5 -14.5 35.5s4.83301 25.833 14.5 35.5s21.5 14.5 35.5 14.5s25.833 -4.83301 35.5 -14.5s14.5 -21.5 14.5 -35.5zM400 0h-300v100h100v300h-100v100h200v-400h100v-100z
" />
    <glyph glyph-name="eth" unicode="&#xf0;" horiz-adv-x="0" 
 />
    <glyph glyph-name="ntilde" unicode="&#xf1;" 
d="M500 750c0 -41.333 -14.6689 -76.666 -44.002 -105.999s-64.666 -44 -105.999 -44s-74.666 12.667 -99.999 38c-41.333 41.333 -74.666 62 -99.999 62c-14 0 -25.833 -4.83301 -35.5 -14.5s-14.5 -21.5 -14.5 -35.5v-50h-100v50c0 41.333 14.667 76.666 44 105.999
s64.666 44 105.999 44c42 0 75.333 -12.333 100 -37c42 -42 75.333 -63 100 -63c14 0 25.833 4.83301 35.5 14.5s14.5 21.5 14.5 35.5v50h100v-50zM99.998 500l-0.000976562 -137l63 62c50 50 95.667 75 137 75c55.333 0 102.5 -19.5 141.5 -58.5s58.5 -86.167 58.5 -141.5
v-300h-100v300c0 27.333 -9.83301 50.833 -29.5 70.5s-43.167 29.5 -70.5 29.5c-33.333 0 -66.666 -16.667 -99.999 -50l-100 -100v-250h-100v500h100z" />
    <glyph glyph-name="ograve" unicode="&#xf2;" 
d="M312 656l-68 -68l-163 162l69 69zM500 200c0 -55.333 -19.5 -102.5 -58.5 -141.5s-86.167 -58.5 -141.5 -58.5h-100c-55.333 0 -102.5 19.5 -141.5 58.5s-58.5 86.167 -58.5 141.5v100c0 55.333 19.5 102.5 58.5 141.5s86.167 58.5 141.5 58.5h100
c54.667 0 101.667 -19.667 141 -59s59 -86.333 59 -141v-100zM400 200v100c0 27.333 -9.83301 50.833 -29.5 70.5s-43.167 29.5 -70.5 29.5h-100c-27.333 0 -50.833 -9.83301 -70.5 -29.5s-29.5 -43.167 -29.5 -70.5v-100c0 -27.333 9.83301 -50.833 29.5 -70.5
s43.167 -29.5 70.5 -29.5h100c27.333 0 50.833 9.83301 70.5 29.5s29.5 43.167 29.5 70.5z" />
    <glyph glyph-name="oacute" unicode="&#xf3;" 
d="M419 750l-163 -162l-69 68l163 163zM500 200c0 -55.333 -19.5 -102.5 -58.5 -141.5s-86.167 -58.5 -141.5 -58.5h-100c-55.333 0 -102.5 19.5 -141.5 58.5s-58.5 86.167 -58.5 141.5v100c0 55.333 19.5 102.5 58.5 141.5s86.167 58.5 141.5 58.5h100
c54.667 0 101.667 -19.667 141 -59s59 -86.333 59 -141v-100zM400 200v100c0 27.333 -9.83301 50.833 -29.5 70.5s-43.167 29.5 -70.5 29.5h-100c-27.333 0 -50.833 -9.83301 -70.5 -29.5s-29.5 -43.167 -29.5 -70.5v-100c0 -27.333 9.83301 -50.833 29.5 -70.5
s43.167 -29.5 70.5 -29.5h100c27.333 0 50.833 9.83301 70.5 29.5s29.5 43.167 29.5 70.5z" />
    <glyph glyph-name="ocircumflex" unicode="&#xf4;" 
d="M412 656l-68 -68l-94 93l-94 -93l-69 68l163 163zM500 200c0 -55.333 -19.5 -102.5 -58.5 -141.5s-86.167 -58.5 -141.5 -58.5h-100c-55.333 0 -102.5 19.5 -141.5 58.5s-58.5 86.167 -58.5 141.5v100c0 55.333 19.5 102.5 58.5 141.5s86.167 58.5 141.5 58.5h100
c54.667 0 101.667 -19.667 141 -59s59 -86.333 59 -141v-100zM400 200v100c0 27.333 -9.83301 50.833 -29.5 70.5s-43.167 29.5 -70.5 29.5h-100c-27.333 0 -50.833 -9.83301 -70.5 -29.5s-29.5 -43.167 -29.5 -70.5v-100c0 -27.333 9.83301 -50.833 29.5 -70.5
s43.167 -29.5 70.5 -29.5h100c27.333 0 50.833 9.83301 70.5 29.5s29.5 43.167 29.5 70.5z" />
    <glyph glyph-name="otilde" unicode="&#xf5;" 
d="M500 750c0 -41.333 -14.6689 -76.666 -44.002 -105.999s-64.666 -44 -105.999 -44s-74.666 12.667 -99.999 38c-41.333 41.333 -74.666 62 -99.999 62c-14 0 -25.833 -4.83301 -35.5 -14.5s-14.5 -21.5 -14.5 -35.5v-50h-100v50c0 41.333 14.667 76.666 44 105.999
s64.666 44 105.999 44c42 0 75.333 -12.333 100 -37c42 -42 75.333 -63 100 -63c14 0 25.833 4.83301 35.5 14.5s14.5 21.5 14.5 35.5v50h100v-50zM499.998 200c0 -55.333 -19.5 -102.5 -58.5 -141.5s-86.167 -58.5 -141.5 -58.5h-100c-55.333 0 -102.5 19.5 -141.5 58.5
s-58.5 86.167 -58.5 141.5v100c0 55.333 19.5 102.5 58.5 141.5s86.167 58.5 141.5 58.5h100c54.667 0 101.667 -19.667 141 -59s59 -86.333 59 -141v-100zM399.998 200v100c0 27.333 -9.83301 50.833 -29.5 70.5s-43.167 29.5 -70.5 29.5h-100
c-27.333 0 -50.833 -9.83301 -70.5 -29.5s-29.5 -43.167 -29.5 -70.5v-100c0 -27.333 9.83301 -50.833 29.5 -70.5s43.167 -29.5 70.5 -29.5h100c27.333 0 50.833 9.83301 70.5 29.5s29.5 43.167 29.5 70.5z" />
    <glyph glyph-name="odieresis" unicode="&#xf6;" 
d="M400 650c0 -14 -4.83301 -25.833 -14.5 -35.5s-21.5 -14.5 -35.5 -14.5s-25.833 4.83301 -35.5 14.5s-14.5 21.5 -14.5 35.5s4.83301 25.833 14.5 35.5s21.5 14.5 35.5 14.5s25.833 -4.83301 35.5 -14.5s14.5 -21.5 14.5 -35.5zM200 650
c0 -14 -4.83301 -25.833 -14.5 -35.5s-21.5 -14.5 -35.5 -14.5s-25.833 4.83301 -35.5 14.5s-14.5 21.5 -14.5 35.5s4.83301 25.833 14.5 35.5s21.5 14.5 35.5 14.5s25.833 -4.83301 35.5 -14.5s14.5 -21.5 14.5 -35.5zM500 200c0 -55.333 -19.5 -102.5 -58.5 -141.5
s-86.167 -58.5 -141.5 -58.5h-100c-55.333 0 -102.5 19.5 -141.5 58.5s-58.5 86.167 -58.5 141.5v100c0 55.333 19.5 102.5 58.5 141.5s86.167 58.5 141.5 58.5h100c54.667 0 101.667 -19.667 141 -59s59 -86.333 59 -141v-100zM400 200v100
c0 27.333 -9.83301 50.833 -29.5 70.5s-43.167 29.5 -70.5 29.5h-100c-27.333 0 -50.833 -9.83301 -70.5 -29.5s-29.5 -43.167 -29.5 -70.5v-100c0 -27.333 9.83301 -50.833 29.5 -70.5s43.167 -29.5 70.5 -29.5h100c27.333 0 50.833 9.83301 70.5 29.5
s29.5 43.167 29.5 70.5z" />
    <glyph glyph-name="divide" unicode="&#xf7;" 
d="M300 550c0 -14 -4.83301 -25.833 -14.5 -35.5s-21.5 -14.5 -35.5 -14.5s-25.833 4.83301 -35.5 14.5s-14.5 21.5 -14.5 35.5s4.83301 25.833 14.5 35.5s21.5 14.5 35.5 14.5s25.833 -4.83301 35.5 -14.5s14.5 -21.5 14.5 -35.5zM500 300h-500v100h500v-100zM300 150
c0 -14 -4.83301 -25.833 -14.5 -35.5s-21.5 -14.5 -35.5 -14.5s-25.833 4.83301 -35.5 14.5s-14.5 21.5 -14.5 35.5s4.83301 25.833 14.5 35.5s21.5 14.5 35.5 14.5s25.833 -4.83301 35.5 -14.5s14.5 -21.5 14.5 -35.5z" />
    <glyph glyph-name="oslash" unicode="&#xf8;" 
d="M500 200c0 -55.333 -19.5 -102.5 -58.5 -141.5s-86.167 -58.5 -141.5 -58.5h-100c-55.333 0 -102.5 19.5 -141.5 58.5s-58.5 86.167 -58.5 141.5v100c0 55.333 19.5 102.5 58.5 141.5s86.167 58.5 141.5 58.5h100c54.667 0 101.667 -19.667 141 -59s59 -86.333 59 -141
v-100zM326 396c-10.667 2.66699 -19.333 4 -26 4h-100c-27.333 0 -50.833 -9.83301 -70.5 -29.5s-29.5 -43.167 -29.5 -70.5v-100c0 -2.66699 1.66699 -10.667 5 -24zM400.001 200v99.999c0 8.66699 -1 17.334 -3 26.001l-222 -222c10.667 -2.66699 19 -4 25 -4h100
c27.333 0 50.833 9.83301 70.5 29.5s29.5 43.167 29.5 70.5z" />
    <glyph glyph-name="ugrave" unicode="&#xf9;" 
d="M312 656l-68 -68l-163 162l69 69zM400 0l0.000976562 138l-62 -63c-50 -50 -96 -75 -138 -75c-55.333 0 -102.5 19.5 -141.5 58.5s-58.5 86.167 -58.5 141.5v300h100v-300c0 -27.333 9.83301 -50.833 29.5 -70.5s43.167 -29.5 70.5 -29.5
c33.333 0 66.666 16.667 99.999 50l100 100v250h100v-500h-100z" />
    <glyph glyph-name="uacute" unicode="&#xfa;" 
d="M419 750l-163 -162l-69 68l163 163zM400 0l0.000976562 138l-62 -63c-50 -50 -96 -75 -138 -75c-55.333 0 -102.5 19.5 -141.5 58.5s-58.5 86.167 -58.5 141.5v300h100v-300c0 -27.333 9.83301 -50.833 29.5 -70.5s43.167 -29.5 70.5 -29.5
c33.333 0 66.666 16.667 99.999 50l100 100v250h100v-500h-100z" />
    <glyph glyph-name="ucircumflex" unicode="&#xfb;" 
d="M412 650l-68 -69l-94 94l-94 -94l-69 69l163 163zM400 0l0.000976562 138l-62 -63c-50 -50 -96 -75 -138 -75c-55.333 0 -102.5 19.5 -141.5 58.5s-58.5 86.167 -58.5 141.5v300h100v-300c0 -27.333 9.83301 -50.833 29.5 -70.5s43.167 -29.5 70.5 -29.5
c33.333 0 66.666 16.667 99.999 50l100 100v250h100v-500h-100z" />
    <glyph glyph-name="udieresis" unicode="&#xfc;" 
d="M400 650c0 -14 -4.83301 -25.833 -14.5 -35.5s-21.5 -14.5 -35.5 -14.5s-25.833 4.83301 -35.5 14.5s-14.5 21.5 -14.5 35.5s4.83301 25.833 14.5 35.5s21.5 14.5 35.5 14.5s25.833 -4.83301 35.5 -14.5s14.5 -21.5 14.5 -35.5zM200 650
c0 -14 -4.83301 -25.833 -14.5 -35.5s-21.5 -14.5 -35.5 -14.5s-25.833 4.83301 -35.5 14.5s-14.5 21.5 -14.5 35.5s4.83301 25.833 14.5 35.5s21.5 14.5 35.5 14.5s25.833 -4.83301 35.5 -14.5s14.5 -21.5 14.5 -35.5zM400 0l0.000976562 138l-62 -63
c-50 -50 -96 -75 -138 -75c-55.333 0 -102.5 19.5 -141.5 58.5s-58.5 86.167 -58.5 141.5v300h100v-300c0 -27.333 9.83301 -50.833 29.5 -70.5s43.167 -29.5 70.5 -29.5c33.333 0 66.666 16.667 99.999 50l100 100v250h100v-500h-100z" />
    <glyph glyph-name="thorn" unicode="&#xfe;" horiz-adv-x="0" 
 />
    <glyph glyph-name="ydieresis" unicode="&#xff;" 
d="M400 650c0 -14 -4.83301 -25.833 -14.5 -35.5s-21.5 -14.5 -35.5 -14.5s-25.833 4.83301 -35.5 14.5s-14.5 21.5 -14.5 35.5s4.83301 25.833 14.5 35.5s21.5 14.5 35.5 14.5s25.833 -4.83301 35.5 -14.5s14.5 -21.5 14.5 -35.5zM200 650
c0 -14 -4.83301 -25.833 -14.5 -35.5s-21.5 -14.5 -35.5 -14.5s-25.833 4.83301 -35.5 14.5s-14.5 21.5 -14.5 35.5s4.83301 25.833 14.5 35.5s21.5 14.5 35.5 14.5s25.833 -4.83301 35.5 -14.5s14.5 -21.5 14.5 -35.5zM500 0c0 -54.667 -19.5 -101.667 -58.5 -141
s-86.167 -59 -141.5 -59h-200v100h200c27.333 0 50.833 9.83301 70.5 29.5s29.5 43.167 29.5 70.5h-200c-55.333 0 -102.5 19.5 -141.5 58.5s-58.5 86.167 -58.5 141.5v300h100v-300c0 -27.333 9.83301 -50.833 29.5 -70.5s43.167 -29.5 70.5 -29.5h200v400h100v-500z" />
    <glyph glyph-name="dotlessi" unicode="&#x131;" 
d="M400 0h-300v100h100v300h-100v100h200v-400h100v-100z" />
    <glyph glyph-name="Lslash" unicode="&#x141;" horiz-adv-x="0" 
 />
    <glyph glyph-name="lslash" unicode="&#x142;" horiz-adv-x="0" 
 />
    <glyph glyph-name="OE" unicode="&#x152;" 
d="M500 0h-300c-55.333 0 -102.5 19.5 -141.5 58.5s-58.5 86.167 -58.5 141.5v300c0 55.333 19.5 102.5 58.5 141.5s86.167 58.5 141.5 58.5h300v-100h-200v-200h100v-100h-100v-200h200v-100zM200 100v500c-27.333 0 -50.833 -9.83301 -70.5 -29.5
s-29.5 -43.167 -29.5 -70.5v-300c0 -27.333 9.83301 -50.833 29.5 -70.5s43.167 -29.5 70.5 -29.5z" />
    <glyph glyph-name="oe" unicode="&#x153;" 
d="M500 0l-149.997 0.000976562c-36.667 0 -69.334 13.333 -98.001 40c-28 -26.667 -62 -40 -102 -40c-41.333 0 -76.666 14.667 -105.999 44s-44 64.666 -44 105.999v200c0 41.333 14.667 76.666 44 105.999s64.666 44 105.999 44c39.333 0 73.666 -13.667 102.999 -41
c28.667 27.333 61 41 97 41c41.333 0 76.666 -14.667 105.999 -44s44 -64.666 44 -105.999v-150h-150c-14 0 -25.833 -4.83301 -35.5 -14.5s-14.5 -21.5 -14.5 -35.5s4.83301 -25.833 14.5 -35.5s21.5 -14.5 35.5 -14.5h150v-100zM400.003 350.001
c0 14 -4.83301 25.833 -14.5 35.5s-21.5 14.5 -35.5 14.5s-25.833 -4.83301 -35.5 -14.5s-14.5 -21.5 -14.5 -35.5s4.83301 -25.833 14.5 -35.5s21.5 -14.5 35.5 -14.5s25.833 4.83301 35.5 14.5s14.5 21.5 14.5 35.5zM200.003 150.001v200c0 14 -4.83301 25.833 -14.5 35.5
s-21.5 14.5 -35.5 14.5s-25.833 -4.83301 -35.5 -14.5s-14.5 -21.5 -14.5 -35.5v-200c0 -14 4.83301 -25.833 14.5 -35.5s21.5 -14.5 35.5 -14.5s25.833 4.83301 35.5 14.5s14.5 21.5 14.5 35.5z" />
    <glyph glyph-name="Scaron" unicode="&#x160;" horiz-adv-x="0" 
 />
    <glyph glyph-name="scaron" unicode="&#x161;" horiz-adv-x="0" 
 />
    <glyph glyph-name="Ydieresis" unicode="&#x178;" 
d="M400 850c0 -14 -4.83301 -25.833 -14.5 -35.5s-21.5 -14.5 -35.5 -14.5s-25.833 4.83301 -35.5 14.5s-14.5 21.5 -14.5 35.5s4.83301 25.833 14.5 35.5s21.5 14.5 35.5 14.5s25.833 -4.83301 35.5 -14.5s14.5 -21.5 14.5 -35.5zM200 850
c0 -14 -4.83301 -25.833 -14.5 -35.5s-21.5 -14.5 -35.5 -14.5s-25.833 4.83301 -35.5 14.5s-14.5 21.5 -14.5 35.5s4.83301 25.833 14.5 35.5s21.5 14.5 35.5 14.5s25.833 -4.83301 35.5 -14.5s14.5 -21.5 14.5 -35.5zM500 431l-200 -200v-231h-100v231l-200 200v269h100
v-231l150 -150l150 150v231h100v-269z" />
    <glyph glyph-name="Zcaron" unicode="&#x17d;" horiz-adv-x="0" 
 />
    <glyph glyph-name="zcaron" unicode="&#x17e;" horiz-adv-x="0" 
 />
    <glyph glyph-name="florin" unicode="&#x192;" 
d="M500 800h-100c-27.333 0 -50.833 -9.83301 -70.5 -29.5s-29.5 -43.167 -29.5 -70.5v-200h100v-100h-100v-400c0 -54.667 -19.5 -101.667 -58.5 -141s-86.167 -59 -141.5 -59h-100v100h100c27.333 0 50.833 9.83301 70.5 29.5s29.5 43.167 29.5 70.5v400h-100v100h100v200
c0 55.333 19.667 102.5 59 141.5s86.333 58.5 141 58.5h100v-100zM0 -200z" />
    <glyph glyph-name="circumflex" unicode="&#x2c6;" 
d="M412 656l-68 -68l-94 93l-94 -93l-69 68l163 163z" />
    <glyph glyph-name="caron" unicode="&#x2c7;" 
d="M410 751l-162 -163l-163 163l69 68l94 -93l94 93z" />
    <glyph glyph-name="breve" unicode="&#x2d8;" 
d="M505 800c0 -54.667 -19.667 -101.667 -59 -141s-86.333 -59 -141 -59c-55.333 0 -102.5 19.5 -141.5 58.5s-58.5 86.167 -58.5 141.5h100c0 -27.333 9.83301 -50.833 29.5 -70.5s43.167 -29.5 70.5 -29.5s50.833 9.83301 70.5 29.5s29.5 43.167 29.5 70.5h100z" />
    <glyph glyph-name="dotaccent" unicode="&#x2d9;" 
d="M405 600c0 -27.333 -9.83301 -50.833 -29.5 -70.5s-43.167 -29.5 -70.5 -29.5s-50.833 9.83301 -70.5 29.5s-29.5 43.167 -29.5 70.5s9.83301 50.833 29.5 70.5s43.167 29.5 70.5 29.5s50.833 -9.83301 70.5 -29.5s29.5 -43.167 29.5 -70.5z" />
    <glyph glyph-name="ring" unicode="&#x2da;" 
d="M405 650c0 -41.333 -14.667 -76.666 -44 -105.999s-64.666 -44 -105.999 -44s-76.666 14.667 -105.999 44s-44 64.666 -44 105.999s14.667 76.666 44 105.999s64.666 44 105.999 44s76.666 -14.667 105.999 -44s44 -64.666 44 -105.999zM305 650
c0 14 -4.83301 25.833 -14.5 35.5s-21.5 14.5 -35.5 14.5s-25.833 -4.83301 -35.5 -14.5s-14.5 -21.5 -14.5 -35.5s4.83301 -25.833 14.5 -35.5s21.5 -14.5 35.5 -14.5s25.833 4.83301 35.5 14.5s14.5 21.5 14.5 35.5z" />
    <glyph glyph-name="ogonek" unicode="&#x2db;" 
d="M312 -131l-68 -69l-144 144v156h200v-100h-100v-19z" />
    <glyph glyph-name="tilde" unicode="&#x2dc;" 
d="M500 750c0 -41.333 -14.6689 -76.666 -44.002 -105.999s-64.666 -44 -105.999 -44s-74.666 12.667 -99.999 38c-41.333 41.333 -74.666 62 -99.999 62c-14 0 -25.833 -4.83301 -35.5 -14.5s-14.5 -21.5 -14.5 -35.5v-50h-100v50c0 41.333 14.667 76.666 44 105.999
s64.666 44 105.999 44c42 0 75.333 -12.333 100 -37c42 -42 75.333 -63 100 -63c14 0 25.833 4.83301 35.5 14.5s14.5 21.5 14.5 35.5v50h100v-50z" />
    <glyph glyph-name="hungarumlaut" unicode="&#x2dd;" 
d="M524 750l-163 -162l-69 68l163 163zM236 750l-162 -162l-69 68l162 163z" />
    <glyph glyph-name="Delta" unicode="&#x394;" 
d="M500 0h-500v100l250 500l250 -500v-100zM400 100l-150 300l-150 -300h300z" />
    <glyph glyph-name="Delta" unicode="&#x2206;" 
d="M500 0h-500v100l250 500l250 -500v-100zM400 100l-150 300l-150 -300h300z" />
    <glyph glyph-name="Omega" unicode="&#x3a9;" 
d="M500 0h-50.002c-41.333 0 -76.666 14.667 -105.999 44s-44 64.666 -44 105.999c0 58 24.667 101.333 74 130c17.333 10 26 33.333 26 70v150c0 27.333 -9.83301 50.833 -29.5 70.5s-43.167 29.5 -70.5 29.5h-100c-27.333 0 -50.833 -9.83301 -70.5 -29.5
s-29.5 -43.167 -29.5 -70.5v-150c0 -26.667 10.667 -51.334 32 -74.001c45.333 -48 68 -90 68 -126c0 -41.333 -14.667 -76.666 -44 -105.999s-64.666 -44 -105.999 -44h-50v100h50c14 0 25.833 4.83301 35.5 14.5s14.5 21.5 14.5 35.5c0 17.333 -6 30.333 -18 39
c-54.667 40.667 -82 94.334 -82 161.001v150c0 55.333 19.5 102.5 58.5 141.5s86.167 58.5 141.5 58.5h100c55.333 0 102.5 -19.667 141.5 -59s58.5 -86.333 58.5 -141v-150c0 -64 -27 -117.667 -81 -161c-12.667 -10 -19 -23 -19 -39c0 -14 4.83301 -25.833 14.5 -35.5
s21.5 -14.5 35.5 -14.5h50v-100z" />
    <glyph glyph-name="Omega" unicode="&#x2126;" 
d="M500 0h-50.002c-41.333 0 -76.666 14.667 -105.999 44s-44 64.666 -44 105.999c0 58 24.667 101.333 74 130c17.333 10 26 33.333 26 70v150c0 27.333 -9.83301 50.833 -29.5 70.5s-43.167 29.5 -70.5 29.5h-100c-27.333 0 -50.833 -9.83301 -70.5 -29.5
s-29.5 -43.167 -29.5 -70.5v-150c0 -26.667 10.667 -51.334 32 -74.001c45.333 -48 68 -90 68 -126c0 -41.333 -14.667 -76.666 -44 -105.999s-64.666 -44 -105.999 -44h-50v100h50c14 0 25.833 4.83301 35.5 14.5s14.5 21.5 14.5 35.5c0 17.333 -6 30.333 -18 39
c-54.667 40.667 -82 94.334 -82 161.001v150c0 55.333 19.5 102.5 58.5 141.5s86.167 58.5 141.5 58.5h100c55.333 0 102.5 -19.667 141.5 -59s58.5 -86.333 58.5 -141v-150c0 -64 -27 -117.667 -81 -161c-12.667 -10 -19 -23 -19 -39c0 -14 4.83301 -25.833 14.5 -35.5
s21.5 -14.5 35.5 -14.5h50v-100z" />
    <glyph glyph-name="pi" unicode="&#x3c0;" 
d="M500 400h-100v-400h-100v400h-100v-400h-100v400h-100v100h500v-100z" />
    <glyph glyph-name="endash" unicode="&#x2013;" 
d="M400 300h-300v100h300v-100z" />
    <glyph glyph-name="emdash" unicode="&#x2014;" 
d="M600 300h-600v100h600v-100z" />
    <glyph glyph-name="quoteleft" unicode="&#x2018;" 
d="M391 662l-61 -62c-20 -20 -30 -42.667 -30 -68v-132h-100v133c0 52.667 19.667 98.667 59 138l62 62z" />
    <glyph glyph-name="quoteright" unicode="&#x2019;" 
d="M400 567c0 -52.667 -19.667 -98.667 -59 -138l-62 -62l-70 71l61 62c20 20 30 42.667 30 68v132h100v-133z" />
    <glyph glyph-name="quotesinglbase" unicode="&#x201a;" 
d="M200 67c0 -52.667 -19.667 -98.667 -59 -138l-62 -62l-70 71l61 62c20 20 30 42.667 30 68v132h100v-133z" />
    <glyph glyph-name="quotedblleft" unicode="&#x201c;" 
d="M491 662l-61 -62c-20 -20 -30 -42.667 -30 -68v-132h-100v133c0 52.667 19.667 98.667 59 138l62 62zM291 662l-61 -62c-20 -20 -30 -42.667 -30 -68v-132h-100v133c0 52.667 19.667 98.667 59 138l62 62z" />
    <glyph glyph-name="quotedblright" unicode="&#x201d;" 
d="M500 567c0 -52.667 -19.667 -98.667 -59 -138l-62 -62l-70 71l61 62c20 20 30 42.667 30 68v132h100v-133zM300 567c0 -52.667 -19.667 -98.667 -59 -138l-62 -62l-70 71l61 62c20 20 30 42.667 30 68v132h100v-133z" />
    <glyph glyph-name="quotedblbase" unicode="&#x201e;" 
d="M400 67c0 -52.667 -19.667 -98.667 -59 -138l-62 -62l-70 71l61 62c20 20 30 42.667 30 68v132h100v-133zM200 67c0 -52.667 -19.667 -98.667 -59 -138l-62 -62l-70 71l61 62c20 20 30 42.667 30 68v132h100v-133z" />
    <glyph glyph-name="dagger" unicode="&#x2020;" 
d="M400 500h-100v-300h-100v300h-100v100h100v100h100v-100h100v-100z" />
    <glyph glyph-name="daggerdbl" unicode="&#x2021;" 
d="M400 300h-100v-100h-100v100h-100v100h100v100h-100v100h100v100h100v-100h100v-100h-100v-100h100v-100z" />
    <glyph glyph-name="bullet" unicode="&#x2022;" 
d="M500 350c0 -69.333 -24.333 -128.333 -73 -177s-107.667 -73 -177 -73s-128.333 24.333 -177 73s-73 107.667 -73 177s24.333 128.333 73 177s107.667 73 177 73s128.333 -24.333 177 -73s73 -107.667 73 -177z" />
    <glyph glyph-name="ellipsis" unicode="&#x2026;" 
d="M500 50c0 -14 -4.83301 -25.833 -14.5 -35.5s-21.5 -14.5 -35.5 -14.5s-25.833 4.83301 -35.5 14.5s-14.5 21.5 -14.5 35.5s4.83301 25.833 14.5 35.5s21.5 14.5 35.5 14.5s25.833 -4.83301 35.5 -14.5s14.5 -21.5 14.5 -35.5zM300 50
c0 -14 -4.83301 -25.833 -14.5 -35.5s-21.5 -14.5 -35.5 -14.5s-25.833 4.83301 -35.5 14.5s-14.5 21.5 -14.5 35.5s4.83301 25.833 14.5 35.5s21.5 14.5 35.5 14.5s25.833 -4.83301 35.5 -14.5s14.5 -21.5 14.5 -35.5zM100 50c0 -14 -4.83301 -25.833 -14.5 -35.5
s-21.5 -14.5 -35.5 -14.5s-25.833 4.83301 -35.5 14.5s-14.5 21.5 -14.5 35.5s4.83301 25.833 14.5 35.5s21.5 14.5 35.5 14.5s25.833 -4.83301 35.5 -14.5s14.5 -21.5 14.5 -35.5z" />
    <glyph glyph-name="perthousand" unicode="&#x2030;" 
d="M605 200c0 -55.333 -14.668 -102.5 -44.001 -141.5s-64.666 -58.5 -105.999 -58.5c-37.333 0 -70.666 17 -99.999 51c-28.667 -34 -62 -51 -100 -51c-41.333 0 -76.666 19.5 -105.999 58.5s-44 86.167 -44 141.5c0 14 0.666992 24.333 2 31l-102 -102v142l131 131
c-36.667 6.66699 -67.667 28.667 -93 66s-38 81.333 -38 132c0 55.333 14.667 102.5 44 141.5s64.666 58.5 105.999 58.5h450v-71l-331 -331c30.667 -4.66699 57.667 -21 81 -49c28.667 34 62 51 100 51c41.333 0 76.666 -19.5 105.999 -58.5s44 -86.167 44 -141.5z
M433.999 700l-149 -0.000976562c13.333 -30 20 -63.333 20 -100c0 -7.33301 -0.666992 -17.666 -2 -30.999zM204.999 599.999c0 27.333 -4.83301 50.833 -14.5 70.5s-21.5 29.5 -35.5 29.5s-25.833 -9.83301 -35.5 -29.5s-14.5 -43.167 -14.5 -70.5
s4.83301 -50.833 14.5 -70.5s21.5 -29.5 35.5 -29.5s25.833 9.83301 35.5 29.5s14.5 43.167 14.5 70.5zM504.999 199.999c0 27.333 -4.83301 50.833 -14.5 70.5s-21.5 29.5 -35.5 29.5s-25.833 -9.83301 -35.5 -29.5s-14.5 -43.167 -14.5 -70.5s4.83301 -50.833 14.5 -70.5
s21.5 -29.5 35.5 -29.5s25.833 9.83301 35.5 29.5s14.5 43.167 14.5 70.5zM304.999 199.999c0 27.333 -4.83301 50.833 -14.5 70.5s-21.5 29.5 -35.5 29.5s-25.833 -9.83301 -35.5 -29.5s-14.5 -43.167 -14.5 -70.5s4.83301 -50.833 14.5 -70.5s21.5 -29.5 35.5 -29.5
s25.833 9.83301 35.5 29.5s14.5 43.167 14.5 70.5z" />
    <glyph glyph-name="guilsinglleft" unicode="&#x2039;" 
d="M190 9l-92 -39l-98 230l98 230l92 -39l-84 -191z" />
    <glyph glyph-name="guilsinglright" unicode="&#x203a;" 
d="M200 200l-98 -230l-92 39l84 191l-84 191l92 39z" />
    <glyph glyph-name="fraction" unicode="&#x2044;" 
d="M405 429l-329 -329l-71 71l330 329z" />
    <glyph glyph-name="Euro" unicode="&#x20ac;" horiz-adv-x="640" 
d="M544 120c0 -11.333 -15 -32 -45 -62c-39.333 -38.667 -86.333 -58 -141 -58h-100c-56 0 -103.333 19.5 -142 58.5s-58 86.167 -58 141.5v10h-58v106h58v68h-58v106h58v10c0 55.333 19.333 102.5 58 141.5s86 58.5 142 58.5h100c62 0 109 -19.667 141 -59l29 -37l-88 -50
c0 2.66699 -4 8 -12 16c-20 20 -43.333 30 -70 30h-100c-28.667 0 -52.334 -10 -71.001 -30c-19.333 -20.667 -29 -44 -29 -70v-10h276v-106h-276v-68h277v-106h-277v-10c0 -26 9.66699 -49.333 29 -70c18.667 -20 42.334 -30 71.001 -30h100c32.667 0 56 10 70 30l18 23z
" />
    <glyph glyph-name="trademark" unicode="&#x2122;" 
d="M600 400h-100v150l-50 -100l-50 100v-150h-100v200h-100v-200h-100v200h-100v100h400l50 -100l50 100h100v-300z" />
    <glyph glyph-name="partialdiff" unicode="&#x2202;" 
d="M500 200c0 -55.333 -19.5 -102.5 -58.5 -141.5s-86.167 -58.5 -141.5 -58.5c-54.667 0 -101.667 20.5 -141 61.5s-59 89.167 -59 144.5c0 41.333 13.333 75.333 40 102l191 192l-150 150l69 69l211 -211c26 -26 39 -60 39 -102v-206zM400 200v225l-186 -187
c-9.33301 -9.33301 -14 -21 -14 -35c0 -28 9.83301 -52.167 29.5 -72.5s43.167 -30.5 70.5 -30.5s50.833 9.83301 70.5 29.5s29.5 43.167 29.5 70.5z" />
    <glyph glyph-name="product" unicode="&#x220f;" 
d="M500 600h-100v-600h-100v600h-100v-600h-100v600h-100v100h500v-100z" />
    <glyph glyph-name="summation" unicode="&#x2211;" 
d="M500 0h-500v56l294 294l-294 294v56h500v-200h-100v100h-219l250 -250l-250 -250h219v100h100v-200z" />
    <glyph glyph-name="radical" unicode="&#x221a;" 
d="M500 500h-83l-255 -500h-25l-137 300l87 44l62 -136l199 392h152v-100z" />
    <glyph glyph-name="infinity" unicode="&#x221e;" 
d="M500 350c0 -41.333 -14.667 -76.666 -44 -105.999s-64.666 -44 -105.999 -44c-34.667 0 -66.667 14 -96 42c-29.333 -28 -64 -42 -104 -42c-41.333 0 -76.666 14.667 -105.999 44s-44 64.666 -44 105.999s14.667 76.666 44 105.999s64.666 44 105.999 44
c34.667 0 66.667 -14 96 -42c29.333 28 64 42 104 42c41.333 0 76.666 -14.667 105.999 -44s44 -64.666 44 -105.999zM400 350c0 14 -4.83301 25.833 -14.5 35.5s-21.5 14.5 -35.5 14.5s-25.833 -4.83301 -35.5 -14.5s-14.5 -21.5 -14.5 -35.5s4.83301 -25.833 14.5 -35.5
s21.5 -14.5 35.5 -14.5s25.833 4.83301 35.5 14.5s14.5 21.5 14.5 35.5zM200 350c0 14 -4.83301 25.833 -14.5 35.5s-21.5 14.5 -35.5 14.5s-25.833 -4.83301 -35.5 -14.5s-14.5 -21.5 -14.5 -35.5s4.83301 -25.833 14.5 -35.5s21.5 -14.5 35.5 -14.5
s25.833 4.83301 35.5 14.5s14.5 21.5 14.5 35.5z" />
    <glyph glyph-name="integral" unicode="&#x222b;" 
d="M500 800h-100c-27.333 0 -50.833 -9.83301 -70.5 -29.5s-29.5 -43.167 -29.5 -70.5v-700c0 -54.667 -19.5 -101.667 -58.5 -141s-86.167 -59 -141.5 -59h-100v100h100c27.333 0 50.833 9.83301 70.5 29.5s29.5 43.167 29.5 70.5v700c0 55.333 19.667 102.5 59 141.5
s86.333 58.5 141 58.5h100v-100zM0 -200z" />
    <glyph glyph-name="approxequal" unicode="&#x2248;" 
d="M500 550c0 -41.333 -14.667 -76.666 -44 -105.999s-64.666 -44 -105.999 -44h-200c-14 0 -25.833 -4.83301 -35.5 -14.5s-14.5 -21.5 -14.5 -35.5h-100c0 41.333 14.667 76.666 44 105.999s64.666 44 105.999 44h200c14 0 25.833 4.83301 35.5 14.5s14.5 21.5 14.5 35.5
v50h100v-50zM500 350c0 -41.333 -14.667 -76.666 -44 -105.999s-64.666 -44 -105.999 -44h-200c-14 0 -25.833 -4.83301 -35.5 -14.5s-14.5 -21.5 -14.5 -35.5v-50h-100v50c0 41.333 14.667 76.666 44 105.999s64.666 44 105.999 44h200c14 0 25.833 4.83301 35.5 14.5
s14.5 21.5 14.5 35.5h100z" />
    <glyph glyph-name="approxequal" unicode="&#x22f2;" 
d="M500 550c0 -41.333 -14.667 -76.666 -44 -105.999s-64.666 -44 -105.999 -44h-200c-14 0 -25.833 -4.83301 -35.5 -14.5s-14.5 -21.5 -14.5 -35.5h-100c0 41.333 14.667 76.666 44 105.999s64.666 44 105.999 44h200c14 0 25.833 4.83301 35.5 14.5s14.5 21.5 14.5 35.5
v50h100v-50zM500 350c0 -41.333 -14.667 -76.666 -44 -105.999s-64.666 -44 -105.999 -44h-200c-14 0 -25.833 -4.83301 -35.5 -14.5s-14.5 -21.5 -14.5 -35.5v-50h-100v50c0 41.333 14.667 76.666 44 105.999s64.666 44 105.999 44h200c14 0 25.833 4.83301 35.5 14.5
s14.5 21.5 14.5 35.5h100z" />
    <glyph glyph-name="notequal" unicode="&#x2260;" 
d="M500 200h-270l-60 -118l-89 46l36 72h-117v100h169l50 100h-219v100h271l59 118l89 -46l-37 -72h118v-100h-169l-50 -100h219v-100z" />
    <glyph glyph-name="lessequal" unicode="&#x2264;" 
d="M411 641l-195 -195l194 -194l-70 -71l-265 265l266 265zM425 0h-350v100h350v-100z" />
    <glyph glyph-name="greaterequal" unicode="&#x2265;" 
d="M525 446l-265 -265l-70 71l194 194l-195 195l70 70zM525 0h-350v100h350v-100z" />
    <glyph glyph-name="lozenge" unicode="&#x25ca;" 
d="M566 350l-283 -283l-283 283l283 283zM424 350l-141 141l-142 -141l142 -141z" />
    <glyph glyph-name="apple" unicode="&#xf000;" 
d="M406 828c0 -51.333 -15.668 -98 -47.001 -140c-20 -26.667 -47 -42 -81 -46c0 112.667 42 182 126 208c0.666992 -2.66699 1.33398 -6.66699 2.00098 -12v-10zM550.999 226c-9.33301 -41.333 -25.001 -84.3359 -47.001 -129.003c-33.333 -67.333 -66.333 -101 -99 -101
c-12 0 -30.167 5.5 -54.5 16.5s-43.5 16.5 -57.5 16.5c-14.667 0 -33.167 -5.66699 -55.5 -17s-39.166 -17 -50.499 -17c-48.667 0 -91.334 55 -128.001 165c-30 88.667 -45 164.334 -45 227.001c0 62 10.333 117.667 31 167c28 66 68.667 99 122 99
c15.333 0 37 -5.16699 65 -15.5s46.667 -15.5 56 -15.5c13.333 0 32.333 5.83301 57 17.5s46.334 17.5 65.001 17.5c30.667 0 58 -11 82 -33c12.667 -12 26.334 -29.333 41.001 -52c-20.667 -23.333 -35.334 -43.666 -44.001 -60.999
c-17.333 -33.333 -26 -68.666 -26 -105.999c0 -34.667 7 -69 21 -103c16.667 -40 39 -65.333 67 -76z" />
    <glyph glyph-name="uniF8FF" unicode="&#xf8ff;" horiz-adv-x="667" 
 />
    <glyph glyph-name="uniFB01" unicode="&#xfb01;" horiz-adv-x="667" 
 />
    <glyph glyph-name="uniFB02" unicode="&#xfb02;" horiz-adv-x="667" 
 />
    <glyph glyph-name="LF" horiz-adv-x="0" 
 />
    <glyph glyph-name="DLE" horiz-adv-x="0" 
 />
    <glyph glyph-name="DC1" 
d="M356 100c-37.333 0 -70.666 14.667 -99.999 44c-29.333 -29.333 -64.666 -44 -105.999 -44s-76.666 14.667 -105.999 44s-44 64.666 -44 105.999s14.667 76.666 44 105.999c-29.333 29.333 -44 62.666 -44 99.999s14.667 70.666 44 99.999s62.666 44 99.999 44
s70.666 -14.667 99.999 -44c29.333 29.333 64.666 44 105.999 44s76.666 -14.667 105.999 -44s44 -62.666 44 -99.999s-14.667 -70.666 -44 -99.999c29.333 -29.333 44 -64.666 44 -105.999s-14.667 -76.666 -44 -105.999s-62.666 -44 -99.999 -44zM400 450
c0 14 -4.83301 25.833 -14.5 35.5s-21.5 14.5 -35.5 14.5s-25.833 -4.83301 -35.5 -14.5s-14.5 -21.5 -14.5 -35.5s4.83301 -25.833 14.5 -35.5s21.5 -14.5 35.5 -14.5s25.833 4.83301 35.5 14.5s14.5 21.5 14.5 35.5zM200 450c0 14 -4.83301 25.833 -14.5 35.5
s-21.5 14.5 -35.5 14.5s-25.833 -4.83301 -35.5 -14.5s-14.5 -21.5 -14.5 -35.5s4.83301 -25.833 14.5 -35.5s21.5 -14.5 35.5 -14.5s25.833 4.83301 35.5 14.5s14.5 21.5 14.5 35.5zM400 250c0 14 -4.83301 25.833 -14.5 35.5s-21.5 14.5 -35.5 14.5
s-25.833 -4.83301 -35.5 -14.5s-14.5 -21.5 -14.5 -35.5s4.83301 -25.833 14.5 -35.5s21.5 -14.5 35.5 -14.5s25.833 4.83301 35.5 14.5s14.5 21.5 14.5 35.5zM200 250c0 14 -4.83301 25.833 -14.5 35.5s-21.5 14.5 -35.5 14.5s-25.833 -4.83301 -35.5 -14.5
s-14.5 -21.5 -14.5 -35.5s4.83301 -25.833 14.5 -35.5s21.5 -14.5 35.5 -14.5s25.833 4.83301 35.5 14.5s14.5 21.5 14.5 35.5z" />
    <glyph glyph-name="DC2" 
d="M556 772l-394 -772h-25l-137 250l60 131l89 -173l312 612z" />
    <glyph glyph-name="DC3" 
d="M566 367l-283 -283l-283 283l283 283z" />
    <glyph glyph-name="DC4" 
d="M406 828c0 -51.333 -15.668 -98 -47.001 -140c-20 -26.667 -47 -42 -81 -46c0 112.667 42 182 126 208c0.666992 -2.66699 1.33398 -6.66699 2.00098 -12v-10zM550.999 226c-9.33301 -41.333 -25.001 -84.3359 -47.001 -129.003c-33.333 -67.333 -66.333 -101 -99 -101
c-12 0 -30.167 5.5 -54.5 16.5s-43.5 16.5 -57.5 16.5c-14.667 0 -33.167 -5.66699 -55.5 -17s-39.166 -17 -50.499 -17c-48.667 0 -91.334 55 -128.001 165c-30 88.667 -45 164.334 -45 227.001c0 62 10.333 117.667 31 167c28 66 68.667 99 122 99
c15.333 0 37 -5.16699 65 -15.5s46.667 -15.5 56 -15.5c13.333 0 32.333 5.83301 57 17.5s46.334 17.5 65.001 17.5c30.667 0 58 -11 82 -33c12.667 -12 26.334 -29.333 41.001 -52c-20.667 -23.333 -35.334 -43.666 -44.001 -60.999
c-17.333 -33.333 -26 -68.666 -26 -105.999c0 -34.667 7 -69 21 -103c16.667 -40 39 -65.333 67 -76z" />
    <glyph glyph-name="RS" horiz-adv-x="0" 
 />
    <glyph glyph-name="US" horiz-adv-x="0" 
 />
    <glyph glyph-name="DEL" horiz-adv-x="0" 
 />
  </font>
</defs>
</svg>
